  0
SECTION
  2
HEADER
  9
$ACADVER
  1
AC1018
  9
$ACADMAINTVER
 70
     0
  9
$DWGCODEPAGE
  3
ANSI_1252
  9
$INSBASE
 10
0.0
 20
0.0
 30
0.0
  9
$EXTMIN
 10
1314359.50420794
 20
247695.8559084689
 30
0.0
  9
$EXTMAX
 10
1350889.218436648
 20
272610.5392605406
 30
0.0
  9
$LIMMIN
 10
0.0
 20
0.0
  9
$LIMMAX
 10
40000.0
 20
30000.0
  9
$ORTHOMODE
 70
     0
  9
$REGENMODE
 70
     0
  9
$FILLMODE
 70
     1
  9
$QTEXTMODE
 70
     0
  9
$MIRRTEXT
 70
     0
  9
$LTSCALE
 40
25.0
  9
$ATTMODE
 70
     1
  9
$TEXTSIZE
 40
851.2057011984289
  9
$TRACEWID
 40
200.0
  9
$TEXTSTYLE
  7
chunho
  9
$CLAYER
  8
KICHTHUOC
  9
$CELTYPE
  6
BYLAYER
  9
$CECOLOR
 62
   256
  9
$CELTSCALE
 40
5.0
  9
$DISPSILH
 70
     0
  9
$DIMSCALE
 40
0.0
  9
$DIMASZ
 40
50.0
  9
$DIMEXO
 40
0.0
  9
$DIMDLI
 40
0.0
  9
$DIMRND
 40
0.0
  9
$DIMDLE
 40
0.0
  9
$DIMEXE
 40
0.18
  9
$DIMTP
 40
0.0
  9
$DIMTM
 40
0.0
  9
$DIMTXT
 40
100.0
  9
$DIMCEN
 40
0.0
  9
$DIMTSZ
 40
0.0
  9
$DIMTOL
 70
     0
  9
$DIMLIM
 70
     0
  9
$DIMTIH
 70
     0
  9
$DIMTOH
 70
     0
  9
$DIMSE1
 70
     0
  9
$DIMSE2
 70
     0
  9
$DIMTAD
 70
     1
  9
$DIMZIN
 70
     9
  9
$DIMBLK
  1
DOT
  9
$DIMASO
 70
     1
  9
$DIMSHO
 70
     1
  9
$DIMPOST
  1

  9
$DIMAPOST
  1

  9
$DIMALT
 70
     0
  9
$DIMALTD
 70
     2
  9
$DIMALTF
 40
25.4
  9
$DIMLFAC
 40
1.0
  9
$DIMTOFL
 70
     1
  9
$DIMTVP
 40
0.0
  9
$DIMTIX
 70
     1
  9
$DIMSOXD
 70
     0
  9
$DIMSAH
 70
     0
  9
$DIMBLK1
  1

  9
$DIMBLK2
  1

  9
$DIMSTYLE
  2
Copy of KT100
  9
$DIMCLRD
 70
   256
  9
$DIMCLRE
 70
   256
  9
$DIMCLRT
 70
    30
  9
$DIMTFAC
 40
1.0
  9
$DIMGAP
 40
80.0
  9
$DIMJUST
 70
     0
  9
$DIMSD1
 70
     0
  9
$DIMSD2
 70
     0
  9
$DIMTOLJ
 70
     1
  9
$DIMTZIN
 70
     9
  9
$DIMALTZ
 70
     9
  9
$DIMALTTZ
 70
     9
  9
$DIMUPT
 70
     0
  9
$DIMDEC
 70
     0
  9
$DIMTDEC
 70
     0
  9
$DIMALTU
 70
     2
  9
$DIMALTTD
 70
     2
  9
$DIMTXSTY
  7
CHULON
  9
$DIMAUNIT
 70
     0
  9
$DIMADEC
 70
     0
  9
$DIMALTRND
 40
0.0
  9
$DIMAZIN
 70
     0
  9
$DIMDSEP
 70
    46
  9
$DIMATFIT
 70
     3
  9
$DIMFRAC
 70
     0
  9
$DIMLDRBLK
  1
DOT
  9
$DIMLUNIT
 70
     2
  9
$DIMLWD
 70
    -2
  9
$DIMLWE
 70
    -1
  9
$DIMTMOVE
 70
     2
  9
$LUNITS
 70
     2
  9
$LUPREC
 70
     0
  9
$SKETCHINC
 40
0.1
  9
$FILLETRAD
 40
0.0
  9
$AUNITS
 70
     0
  9
$AUPREC
 70
     0
  9
$MENU
  1
C:\ACAD12\SUPPORT\ACAD
  9
$ELEVATION
 40
0.0
  9
$PELEVATION
 40
0.0
  9
$THICKNESS
 40
0.0
  9
$LIMCHECK
 70
     0
  9
$CHAMFERA
 40
0.0
  9
$CHAMFERB
 40
0.0
  9
$CHAMFERC
 40
0.0
  9
$CHAMFERD
 40
0.0
  9
$SKPOLY
 70
     0
  9
$TDCREATE
 40
2452665.376736111
  9
$TDUCREATE
 40
2452665.085069444
  9
$TDUPDATE
 40
2455076.762983033
  9
$TDUUPDATE
 40
2455076.471316365
  9
$TDINDWG
 40
19.8092028009
  9
$TDUSRTIMER
 40
19.8092028009
  9
$USRTIMER
 70
     1
  9
$ANGBASE
 50
0.0
  9
$ANGDIR
 70
     0
  9
$PDMODE
 70
    34
  9
$PDSIZE
 40
0.0
  9
$PLINEWID
 40
0.0
  9
$SPLFRAME
 70
     0
  9
$SPLINETYPE
 70
     6
  9
$SPLINESEGS
 70
     8
  9
$HANDSEED
  5
64B
  9
$SURFTAB1
 70
     6
  9
$SURFTAB2
 70
     6
  9
$SURFTYPE
 70
     6
  9
$SURFU
 70
     6
  9
$SURFV
 70
     6
  9
$UCSBASE
  2

  9
$UCSNAME
  2

  9
$UCSORG
 10
0.0
 20
0.0
 30
0.0
  9
$UCSXDIR
 10
1.0
 20
0.0
 30
0.0
  9
$UCSYDIR
 10
0.0
 20
1.0
 30
0.0
  9
$UCSORTHOREF
  2

  9
$UCSORTHOVIEW
 70
     0
  9
$UCSORGTOP
 10
0.0
 20
0.0
 30
0.0
  9
$UCSORGBOTTOM
 10
0.0
 20
0.0
 30
0.0
  9
$UCSORGLEFT
 10
0.0
 20
0.0
 30
0.0
  9
$UCSORGRIGHT
 10
0.0
 20
0.0
 30
0.0
  9
$UCSORGFRONT
 10
0.0
 20
0.0
 30
0.0
  9
$UCSORGBACK
 10
0.0
 20
0.0
 30
0.0
  9
$PUCSBASE
  2

  9
$PUCSNAME
  2

  9
$PUCSORG
 10
0.0
 20
0.0
 30
0.0
  9
$PUCSXDIR
 10
1.0
 20
0.0
 30
0.0
  9
$PUCSYDIR
 10
0.0
 20
1.0
 30
0.0
  9
$PUCSORTHOREF
  2

  9
$PUCSORTHOVIEW
 70
     0
  9
$PUCSORGTOP
 10
0.0
 20
0.0
 30
0.0
  9
$PUCSORGBOTTOM
 10
0.0
 20
0.0
 30
0.0
  9
$PUCSORGLEFT
 10
0.0
 20
0.0
 30
0.0
  9
$PUCSORGRIGHT
 10
0.0
 20
0.0
 30
0.0
  9
$PUCSORGFRONT
 10
0.0
 20
0.0
 30
0.0
  9
$PUCSORGBACK
 10
0.0
 20
0.0
 30
0.0
  9
$USERI1
 70
     2
  9
$USERI2
 70
     0
  9
$USERI3
 70
     0
  9
$USERI4
 70
     0
  9
$USERI5
 70
     3
  9
$USERR1
 40
300.0
  9
$USERR2
 40
600.0
  9
$USERR3
 40
1800.0
  9
$USERR4
 40
3900.0
  9
$USERR5
 40
600.0
  9
$WORLDVIEW
 70
     1
  9
$SHADEDGE
 70
     3
  9
$SHADEDIF
 70
    70
  9
$TILEMODE
 70
     1
  9
$MAXACTVP
 70
    16
  9
$PINSBASE
 10
0.0
 20
0.0
 30
0.0
  9
$PLIMCHECK
 70
     0
  9
$PEXTMIN
 10
1.000000000000000E+20
 20
1.000000000000000E+20
 30
1.000000000000000E+20
  9
$PEXTMAX
 10
-1.000000000000000E+20
 20
-1.000000000000000E+20
 30
-1.000000000000000E+20
  9
$PLIMMIN
 10
0.0
 20
0.0
  9
$PLIMMAX
 10
12.0
 20
9.0
  9
$UNITMODE
 70
     0
  9
$VISRETAIN
 70
     0
  9
$PLINEGEN
 70
     0
  9
$PSLTSCALE
 70
     1
  9
$TREEDEPTH
 70
  3020
  9
$CMLSTYLE
  2
STANDARD
  9
$CMLJUST
 70
     0
  9
$CMLSCALE
 40
1.0
  9
$PROXYGRAPHICS
 70
     1
  9
$MEASUREMENT
 70
     0
  9
$CELWEIGHT
370
    -1
  9
$ENDCAPS
280
     0
  9
$JOINSTYLE
280
     0
  9
$LWDISPLAY
290
     0
  9
$INSUNITS
 70
     4
  9
$HYPERLINKBASE
  1

  9
$STYLESHEET
  1

  9
$XEDIT
290
     1
  9
$CEPSNTYPE
380
     0
  9
$PSTYLEMODE
290
     1
  9
$FINGERPRINTGUID
  2
{A35A3D8B-7689-4211-AB5D-989BDEE652A6}
  9
$VERSIONGUID
  2
{48427E95-C3CA-44A1-AF14-1DBFBA3B7D7D}
  9
$EXTNAMES
290
     1
  9
$PSVPSCALE
 40
0.0
  9
$OLESTARTUP
290
     0
  9
$SORTENTS
280
   127
  9
$INDEXCTL
280
     0
  9
$HIDETEXT
280
     1
  9
$XCLIPFRAME
290
     0
  9
$HALOGAP
280
     0
  9
$OBSCOLOR
 70
   257
  9
$OBSLTYPE
280
     0
  9
$INTERSECTIONDISPLAY
280
     0
  9
$INTERSECTIONCOLOR
 70
   257
  9
$DIMASSOC
280
     1
  9
$PROJECTNAME
  1

  0
ENDSEC
  0
SECTION
  2
CLASSES
  0
CLASS
  1
LWPOLYLINE
  2
AcDbPolyline
  3
ObjectDBX Classes
 90
        0
 91
       42
280
     0
281
     1
  0
CLASS
  1
HATCH
  2
AcDbHatch
  3
ObjectDBX Classes
 90
        0
 91
        3
280
     0
281
     1
  0
CLASS
  1
DICTIONARYVAR
  2
AcDbDictionaryVar
  3
ObjectDBX Classes
 90
        0
 91
        0
280
     0
281
     0
  0
CLASS
  1
XRECORD
  2
AcDbXrecord
  3
ObjectDBX Classes
 90
        0
 91
       44
280
     0
281
     0
  0
CLASS
  1
DIMASSOC
  2
AcDbDimAssoc
  3
"AcDbDimAssoc|Product Desc:     AcDim ARX App For Dimension|Company:          Autodesk, Inc.|WEB Address:      www.autodesk.com"
 90
        0
 91
        0
280
     1
281
     0
  0
CLASS
  1
ACDBDICTIONARYWDFLT
  2
AcDbDictionaryWithDefault
  3
ObjectDBX Classes
 90
        0
 91
        1
280
     0
281
     0
  0
CLASS
  1
ACDBPLACEHOLDER
  2
AcDbPlaceHolder
  3
ObjectDBX Classes
 90
        0
 91
        1
280
     0
281
     0
  0
CLASS
  1
LAYOUT
  2
AcDbLayout
  3
ObjectDBX Classes
 90
        0
 91
        2
280
     0
281
     0
  0
CLASS
  1
OBJECT_PTR
  2
CAseDLPNTableRecord
  3
ASE-LPNTableRecord
 90
        1
 91
        0
280
     0
281
     0
  0
CLASS
  1
SORTENTSTABLE
  2
AcDbSortentsTable
  3
ObjectDBX Classes
 90
        0
 91
        5
280
     0
281
     0
  0
CLASS
  1
MATERIAL
  2
AcDbMaterial
  3
ObjectDBX Classes
 90
        0
 91
        1
280
     0
281
     0
  0
CLASS
  1
VISUALSTYLE
  2
AcDbVisualStyle
  3
ObjectDBX Classes
 90
     4095
 91
        1
280
     1
281
     0
  0
CLASS
  1
TABLESTYLE
  2
AcDbTableStyle
  3
ObjectDBX Classes
 90
     4095
 91
        0
280
     1
281
     0
  0
CLASS
  1
IMAGEDEF
  2
AcDbRasterImageDef
  3
ISM
 90
        0
 91
        0
280
     0
281
     0
  0
CLASS
  1
RASTERVARIABLES
  2
AcDbRasterVariables
  3
ISM
 90
        0
 91
        0
280
     0
281
     0
  0
CLASS
  1
IMAGEDEF_REACTOR
  2
AcDbRasterImageDefReactor
  3
ISM
 90
        1
 91
        0
280
     0
281
     0
  0
CLASS
  1
IMAGE
  2
AcDbRasterImage
  3
ISM
 90
      127
 91
        0
280
     0
281
     1
  0
CLASS
  1
SCALE
  2
AcDbScale
  3
ObjectDBX Classes
 90
     1153
 91
        0
280
     1
281
     0
  0
CLASS
  1
MLEADERSTYLE
  2
AcDbMLeaderStyle
  3
ACDB_MLEADERSTYLE_CLASS
 90
     4095
 91
        0
280
     1
281
     0
  0
CLASS
  1
CELLSTYLEMAP
  2
AcDbCellStyleMap
  3
ObjectDBX Classes
 90
     1152
 91
        0
280
     1
281
     0
  0
ENDSEC
  0
SECTION
  2
TABLES
  0
TABLE
  2
VPORT
  5
2A
102
{ACAD_XDICTIONARY
360
2C
102
}
330
0
100
AcDbSymbolTable
 70
     3
  0
VPORT
  5
64A
330
2A
100
AcDbSymbolTableRecord
100
AcDbViewportTableRecord
  2
*Active
 70
     0
 10
0.0
 20
0.0
 11
1.0
 21
1.0
 12
1342639.535805429
 22
262457.4855011625
 13
0.0
 23
0.0
 14
100.0
 24
100.0
 15
1000.0
 25
1000.0
 16
0.0
 26
0.0
 36
1.0
 17
0.0
 27
0.0
 37
0.0
 40
69357.33219722548
 41
1.754816112084063
 42
50.0
 43
0.0
 44
0.0
 50
0.0
 51
0.0
 71
     0
 72
   100
 73
     1
 74
     1
 75
     0
 76
     0
 77
     0
 78
     0
281
     0
 65
     1
110
0.0
120
0.0
130
0.0
111
1.0
121
0.0
131
0.0
112
0.0
122
1.0
132
0.0
 79
     0
146
0.0
  0
ENDTAB
  0
TABLE
  2
LTYPE
  5
25
330
0
100
AcDbSymbolTable
 70
     9
  0
LTYPE
  5
26
330
25
100
AcDbSymbolTableRecord
100
AcDbLinetypeTableRecord
  2
BYBLOCK
 70
     0
  3

 72
    65
 73
     0
 40
0.0
  0
LTYPE
  5
27
330
25
100
AcDbSymbolTableRecord
100
AcDbLinetypeTableRecord
  2
BYLAYER
 70
     0
  3

 72
    65
 73
     0
 40
0.0
  0
LTYPE
  5
11
330
25
100
AcDbSymbolTableRecord
100
AcDbLinetypeTableRecord
  2
CONTINUOUS
 70
     0
  3
Solid line
 72
    65
 73
     0
 40
0.0
  0
LTYPE
  5
185
330
25
100
AcDbSymbolTableRecord
100
AcDbLinetypeTableRecord
  2
ACAD_ISO04W100
 70
     0
  3
ISO long-dash dot ____ . ____ . ____ . ____ . _
 72
    65
 73
     4
 40
30.0
 49
24.0
 74
     0
 49
-3.0
 74
     0
 49
0.0
 74
     0
 49
-3.0
 74
     0
  0
LTYPE
  5
8F
330
25
100
AcDbSymbolTableRecord
100
AcDbLinetypeTableRecord
  2
ACAD_ISO10W100
 70
     0
  3
ISO dash dot __ . __ . __ . __ . __ . __ . __ .
 72
    65
 73
     4
 40
18.5
 49
12.0
 74
     0
 49
-3.0
 74
     0
 49
0.5
 74
     0
 49
-3.0
 74
     0
  0
LTYPE
  5
31C
330
25
100
AcDbSymbolTableRecord
100
AcDbLinetypeTableRecord
  2
DASHED
 70
     0
  3
Dashed __ __ __ __ __ __ __ __ __ __ __ __ __ _
 72
    65
 73
     2
 40
0.75
 49
0.5
 74
     0
 49
-0.25
 74
     0
  0
LTYPE
  5
3D3
330
25
100
AcDbSymbolTableRecord
100
AcDbLinetypeTableRecord
  2
FENCELINE1
 70
     0
  3
Fenceline circle ----0-----0----0-----0----0---
 72
    65
 73
     4
 40
1.45
 49
0.25
 74
     0
 49
-0.1
 74
     4
 75
   133
340
3D4
 46
0.1
 50
0.0
 44
-0.1
 45
0.0
 49
-0.1
 74
     0
 49
1.0
 74
     0
  0
LTYPE
  5
3DA
330
25
100
AcDbSymbolTableRecord
100
AcDbLinetypeTableRecord
  2
THOAT_NUOCT114
 70
     0
  3
T line ----T114----T114----T114----T114----T114
 72
    65
 73
     3
 40
0.95
 49
0.5
 74
     0
 49
-0.2
 74
     2
 75
     0
340
23
 46
0.1
 50
0.0
 44
-0.1
 45
-0.05
  9
T114
 49
-0.25
 74
     0
  0
LTYPE
  5
1B9
330
25
100
AcDbSymbolTableRecord
100
AcDbLinetypeTableRecord
  2
DASHEDX2
 70
     0
  3
____  ____  ____  ____  ____  ____  ____  ____ 
 72
    65
 73
     2
 40
1.5
 49
1.0
 74
     0
 49
-0.5
 74
     0
  0
LTYPE
  5
453
330
25
100
AcDbSymbolTableRecord
100
AcDbLinetypeTableRecord
  2
CAP_NUOC_PHI_27
 70
     0
  3
Cap nuoc phi 27 ------C27------C27------C27----
 72
    65
 73
     3
 40
1.2
 49
0.9
 74
     0
 49
-0.1
 74
     2
 75
     0
340
23
 46
0.1
 50
0.0
 44
-0.1
 45
-0.05
  9
C27
 49
-0.2
 74
     0
  0
LTYPE
  5
3C3
330
25
100
AcDbSymbolTableRecord
100
AcDbLinetypeTableRecord
  2
THOAT_NUOC_PHI_60
 70
     0
  3
Thoat nuoc phi 60 -------T60-------T60-------T6
 72
    65
 73
     3
 40
1.2
 49
0.9
 74
     0
 49
-0.1
 74
     2
 75
     0
340
23
 46
0.1
 50
0.0
 44
-0.1
 45
-0.05
  9
T60
 49
-0.2
 74
     0
  0
ENDTAB
  0
TABLE
  2
LAYER
  5
1B
102
{ACAD_XDICTIONARY
360
1C
102
}
330
0
100
AcDbSymbolTable
 70
    21
  0
LAYER
  5
6
102
{ACAD_XDICTIONARY
360
7
102
}
330
1B
100
AcDbSymbolTableRecord
100
AcDbLayerTableRecord
  2
0
 70
     0
 62
     7
  6
CONTINUOUS
370
    13
390
F
1001
RAK
1000
{ACET-LAYISO
1070
     0
1070
     7
1000
CONTINUOUS
1071
       13
1071
        1
1005
F
1000
ACET-LAYISO}
  0
LAYER
  5
39
102
{ACAD_XDICTIONARY
360
3A
102
}
330
1B
100
AcDbSymbolTableRecord
100
AcDbLayerTableRecord
  2
TUONG
 70
     0
 62
     1
  6
CONTINUOUS
370
    35
390
F
1001
RAK
1000
{ACET-LAYISO
1070
     0
1070
     1
1000
CONTINUOUS
1071
       35
1071
        1
1005
F
1000
ACET-LAYISO}
  0
LAYER
  5
482
102
{ACAD_XDICTIONARY
360
483
102
}
330
1B
100
AcDbSymbolTableRecord
100
AcDbLayerTableRecord
  2
DEFPOINTS
 70
     0
 62
     7
  6
CONTINUOUS
290
     0
370
    13
390
F
1001
RAK
1000
{ACET-LAYISO
1070
     0
1070
     7
1000
CONTINUOUS
1071
       13
1071
        0
1005
F
1000
ACET-LAYISO}
  0
LAYER
  5
4FE
102
{ACAD_XDICTIONARY
360
4FF
102
}
330
1B
100
AcDbSymbolTableRecord
100
AcDbLayerTableRecord
  2
NET 02
 70
     0
 62
     9
  6
CONTINUOUS
370
    13
390
F
1001
RAK
1000
{ACET-LAYISO
1070
     0
1070
     9
1000
CONTINUOUS
1071
       13
1071
        1
1005
F
1000
ACET-LAYISO}
  0
LAYER
  5
173
102
{ACAD_XDICTIONARY
360
174
102
}
330
1B
100
AcDbSymbolTableRecord
100
AcDbLayerTableRecord
  2
CHU
 70
     0
 62
     3
  6
CONTINUOUS
370
    13
390
F
1001
RAK
1000
{ACET-LAYISO
1070
     0
1070
     3
1000
CONTINUOUS
1071
       13
1071
        1
1005
F
1000
ACET-LAYISO}
  0
LAYER
  5
59
102
{ACAD_XDICTIONARY
360
5A
102
}
330
1B
100
AcDbSymbolTableRecord
100
AcDbLayerTableRecord
  2
CUA
 70
     0
 62
   140
  6
CONTINUOUS
370
    -3
390
F
1001
RAK
1000
{ACET-LAYISO
1070
     0
1070
   140
1000
CONTINUOUS
1071
       -3
1071
        1
1005
F
1000
ACET-LAYISO}
  0
LAYER
  5
475
102
{ACAD_XDICTIONARY
360
476
102
}
330
1B
100
AcDbSymbolTableRecord
100
AcDbLayerTableRecord
  2
DIM
 70
     0
 62
     8
  6
CONTINUOUS
370
    -3
390
F
1001
RAK
1000
{ACET-LAYISO
1070
     0
1070
     8
1000
CONTINUOUS
1071
       -3
1071
        1
1005
F
1000
ACET-LAYISO}
  0
LAYER
  5
7A
102
{ACAD_XDICTIONARY
360
7B
102
}
330
1B
100
AcDbSymbolTableRecord
100
AcDbLayerTableRecord
  2
netmanh
 70
     0
 62
     9
  6
CONTINUOUS
370
    -3
390
F
1001
RAK
1000
{ACET-LAYISO
1070
     0
1070
     9
1000
CONTINUOUS
1071
       -3
1071
        1
1005
F
1000
ACET-LAYISO}
  0
LAYER
  5
8B
102
{ACAD_XDICTIONARY
360
8C
102
}
330
1B
100
AcDbSymbolTableRecord
100
AcDbLayerTableRecord
  2
tim 08
 70
     0
 62
     8
  6
ACAD_ISO10W100
370
    -3
390
F
1001
RAK
1000
{ACET-LAYISO
1070
     0
1070
     8
1000
ACAD_ISO10W100
1071
       -3
1071
        1
1005
F
1000
ACET-LAYISO}
  0
LAYER
  5
16E
102
{ACAD_XDICTIONARY
360
16F
102
}
330
1B
100
AcDbSymbolTableRecord
100
AcDbLayerTableRecord
  2
cat m
 70
     0
 62
     1
  6
CONTINUOUS
370
    -3
390
F
1001
RAK
1000
{ACET-LAYISO
1070
     0
1070
     1
1000
CONTINUOUS
1071
       -3
1071
        1
1005
F
1000
ACET-LAYISO}
  0
LAYER
  5
51
102
{ACAD_XDICTIONARY
360
52
102
}
330
1B
100
AcDbSymbolTableRecord
100
AcDbLayerTableRecord
  2
thay m
 70
     0
 62
     4
  6
CONTINUOUS
370
    -3
390
F
1001
RAK
1000
{ACET-LAYISO
1070
     0
1070
     4
1000
CONTINUOUS
1071
       -3
1071
        1
1005
F
1000
ACET-LAYISO}
  0
LAYER
  5
179
102
{ACAD_XDICTIONARY
360
17A
102
}
330
1B
100
AcDbSymbolTableRecord
100
AcDbLayerTableRecord
  2
NETTHAY
 70
     0
 62
     7
  6
CONTINUOUS
370
    25
390
F
1001
RAK
1000
{ACET-LAYISO
1070
     0
1070
     7
1000
CONTINUOUS
1070
     1
1071
       25
1071
        1
1005
F
1000
ACET-LAYISO}
  0
LAYER
  5
4A
102
{ACAD_XDICTIONARY
360
4B
102
}
330
1B
100
AcDbSymbolTableRecord
100
AcDbLayerTableRecord
  2
KICHTHUOC
 70
     0
 62
     9
  6
CONTINUOUS
370
    18
390
F
1001
RAK
1000
{ACET-LAYISO
1070
     0
1070
     9
1000
CONTINUOUS
1071
       18
1071
        1
1005
F
1000
ACET-LAYISO}
  0
LAYER
  5
3DC
102
{ACAD_XDICTIONARY
360
3DD
102
}
330
1B
100
AcDbSymbolTableRecord
100
AcDbLayerTableRecord
  2
015
 70
     0
 62
     9
  6
CONTINUOUS
370
    13
390
F
1001
RAK
1000
{ACET-LAYISO
1070
     0
1070
     9
1000
CONTINUOUS
1071
       13
1071
        1
1005
F
1000
ACET-LAYISO}
  0
LAYER
  5
FF
102
{ACAD_XDICTIONARY
360
100
102
}
330
1B
100
AcDbSymbolTableRecord
100
AcDbLayerTableRecord
  2
NET THAY
 70
     0
 62
   124
  6
CONTINUOUS
370
    15
390
F
1001
RAK
1000
{ACET-LAYISO
1070
     0
1070
   124
1000
CONTINUOUS
1071
       15
1071
        1
1005
F
1000
ACET-LAYISO}
  0
LAYER
  5
74
102
{ACAD_XDICTIONARY
360
75
102
}
330
1B
100
AcDbSymbolTableRecord
100
AcDbLayerTableRecord
  2
TEXT
 70
     0
 62
     7
  6
CONTINUOUS
370
    -3
390
F
1001
RAK
1000
{ACET-LAYISO
1070
     0
1070
     7
1000
CONTINUOUS
1070
     1
1071
       -3
1071
        1
1005
F
1000
ACET-LAYISO}
  0
LAYER
  5
3CF
102
{ACAD_XDICTIONARY
360
3D0
102
}
330
1B
100
AcDbSymbolTableRecord
100
AcDbLayerTableRecord
  2
DAYDIEN
 70
     0
 62
     2
  6
DASHED
370
    -3
390
F
  0
LAYER
  5
3C9
102
{ACAD_XDICTIONARY
360
3CA
102
}
330
1B
100
AcDbSymbolTableRecord
100
AcDbLayerTableRecord
  2
DEN5-2BONG
 70
     0
 62
     2
  6
CONTINUOUS
370
     5
390
F
1001
RAK
1000
{ACET-LAYISO
1070
     0
1070
     2
1000
Continuous
1071
        5
1071
        1
1005
F
1000
ACET-LAYISO}
  0
LAYER
  5
30C
102
{ACAD_XDICTIONARY
360
30D
102
}
330
1B
100
AcDbSymbolTableRecord
100
AcDbLayerTableRecord
  2
TBNUOC
 70
     0
 62
    12
  6
CONTINUOUS
370
     9
390
F
1001
RAK
1000
{ACET-LAYISO
1070
     0
1070
    12
1000
Continuous
1070
     1
1071
        5
1071
        1
1005
F
1000
ACET-LAYISO}
  0
LAYER
  5
181
102
{ACAD_XDICTIONARY
360
182
102
}
330
1B
100
AcDbSymbolTableRecord
100
AcDbLayerTableRecord
  2
Layer1
 70
     0
 62
     8
  6
ACAD_ISO04W100
370
    -3
390
F
1001
RAK
1000
{ACET-LAYISO
1070
     0
1070
     8
1000
ACAD_ISO04W100
1071
       -3
1071
        1
1005
F
1000
ACET-LAYISO}
  0
LAYER
  5
168
102
{ACAD_XDICTIONARY
360
169
102
}
330
1B
100
AcDbSymbolTableRecord
100
AcDbLayerTableRecord
  2
DIM-WC
 70
     0
 62
     9
  6
CONTINUOUS
370
    -3
390
F
1001
RAK
1000
{ACET-LAYISO
1070
     0
1070
     9
1000
Continuous
1071
       -3
1071
        1
1005
F
1000
ACET-LAYISO}
  0
ENDTAB
  0
TABLE
  2
STYLE
  5
22
330
0
100
AcDbSymbolTable
 70
     9
  0
STYLE
  5
23
330
22
100
AcDbSymbolTableRecord
100
AcDbTextStyleTableRecord
  2
STANDARD
 70
     0
 40
0.0
 41
1.0
 50
0.0
 71
     0
 42
0.2
  3
C:\ACAD12\FONTS\TXT.SHX
  4

  0
STYLE
  5
33
330
22
100
AcDbSymbolTableRecord
100
AcDbTextStyleTableRecord
  2
CHULON
 70
     0
 40
0.0
 41
1.0
 50
0.0
 71
     0
 42
400.0
  3
VHAVAN.TTF
  4

1001
ACAD
1000
.VnAvantH
1071
       34
  0
STYLE
  5
4E
330
22
100
AcDbSymbolTableRecord
100
AcDbTextStyleTableRecord
  2
chunho
 70
     0
 40
0.0
 41
1.0
 50
0.0
 71
     0
 42
851.2057011984289
  3
nghia5.shx
  4

  0
STYLE
  5
78
330
22
100
AcDbSymbolTableRecord
100
AcDbTextStyleTableRecord
  2
a 1
 70
     0
 40
0.0
 41
1.0
 50
0.0
 71
     0
 42
566.0
  3

  4

1001
ACAD
1000
VNI-Avo
1071
        2
  0
STYLE
  5
177
330
22
100
AcDbSymbolTableRecord
100
AcDbTextStyleTableRecord
  2
700
 70
     0
 40
700.0
 41
1.0
 50
0.0
 71
     0
 42
0.2
  3
VHAVAN.TTF
  4

1001
ACAD
1000
.VnAvantH
1071
       34
  0
STYLE
  5
3D6
330
22
100
AcDbSymbolTableRecord
100
AcDbTextStyleTableRecord
  2
AVANH
 70
     0
 40
0.0
 41
1.0
 50
0.0
 71
     0
 42
4.0
  3
VHELVCN.TTF
  4

1001
ACAD
1000
VNI-Helve-Condense
1071
        2
  0
STYLE
  5
3C0
330
22
100
AcDbSymbolTableRecord
100
AcDbTextStyleTableRecord
  2
TEXT-STYLE01
 70
     0
 40
130.0
 41
1.0
 50
0.0
 71
     0
 42
200.0
  3
VHELVCN.TTF
  4

1001
ACAD
1000
VNI-Helve-Condense
1071
        2
  0
STYLE
  5
3D4
330
22
100
AcDbSymbolTableRecord
100
AcDbTextStyleTableRecord
  2

 70
     1
 40
0.0
 41
1.0
 50
0.0
 71
     0
 42
250.0
  3
ltypeshp.shx
  4

  0
STYLE
  5
473
330
22
100
AcDbSymbolTableRecord
100
AcDbTextStyleTableRecord
  2
STYLE3
 70
     0
 40
180.0
 41
1.0
 50
0.0
 71
     0
 42
180.0
  3
VHAVAN.TTF
  4

1001
ACAD
1000
.VnAvantH
1071
       34
  0
ENDTAB
  0
TABLE
  2
VIEW
  5
28
330
0
100
AcDbSymbolTable
 70
     0
  0
ENDTAB
  0
TABLE
  2
UCS
  5
29
330
0
100
AcDbSymbolTable
 70
     0
  0
ENDTAB
  0
TABLE
  2
APPID
  5
30
330
0
100
AcDbSymbolTable
 70
     9
  0
APPID
  5
21
330
30
100
AcDbSymbolTableRecord
100
AcDbRegAppTableRecord
  2
ACAD
 70
     0
  0
APPID
  5
12
330
30
100
AcDbSymbolTableRecord
100
AcDbRegAppTableRecord
  2
RAK
 70
     0
  0
APPID
  5
16
330
30
100
AcDbSymbolTableRecord
100
AcDbRegAppTableRecord
  2
ACAD_PSEXT
 70
     0
  0
APPID
  5
1F
330
30
100
AcDbSymbolTableRecord
100
AcDbRegAppTableRecord
  2
AcLayerTools
 70
     0
  0
APPID
  5
3D7
330
30
100
AcDbSymbolTableRecord
100
AcDbRegAppTableRecord
  2
ACAD_DSTYLE_DIMJOGGED_JOGANGLE_SYMBOL
 70
     0
  0
APPID
  5
43
330
30
100
AcDbSymbolTableRecord
100
AcDbRegAppTableRecord
  2
ACAD_DSTYLE_DIM_EXT1_LINETYPE
 70
     0
  0
APPID
  5
44
330
30
100
AcDbSymbolTableRecord
100
AcDbRegAppTableRecord
  2
ACAD_DSTYLE_DIM_EXT2_LINETYPE
 70
     0
  0
APPID
  5
42
330
30
100
AcDbSymbolTableRecord
100
AcDbRegAppTableRecord
  2
ACAD_DSTYLE_DIMEXT_LENGTH
 70
     0
  0
APPID
  5
648
330
30
100
AcDbSymbolTableRecord
100
AcDbRegAppTableRecord
  2
DCO15
 70
     0
  0
ENDTAB
  0
TABLE
  2
DIMSTYLE
  5
31
330
0
100
AcDbSymbolTable
 70
     2
100
AcDbDimStyleTable
 71
     1
340
32
  0
DIMSTYLE
105
32
330
31
100
AcDbSymbolTableRecord
100
AcDbDimStyleTableRecord
  2
Copy of KT100
 70
     0
 40
0.0
 41
60.0
 42
0.0
 43
0.0
 73
     0
 74
     0
 77
     1
 78
     9
140
600.0
141
0.0
147
80.0
172
     1
174
     1
176
   256
177
   256
178
    30
271
     0
272
     0
279
     2
284
     9
285
     9
286
     9
340
33
341
34
342
34
372
    -1
1001
ACAD_DSTYLE_DIMEXT_LENGTH
1070
   378
1040
100.0
1001
ACAD_DSTYLE_DIM_EXT1_LINETYPE
1070
   381
1005
27
1001
ACAD_DSTYLE_DIM_EXT2_LINETYPE
1070
   382
1005
27
  0
DIMSTYLE
105
3D5
102
{ACAD_REACTORS
330
474
330
488
330
495
330
4A2
330
4AF
330
4BC
330
4C9
330
4D6
330
4E3
330
4F0
330
519
330
526
330
533
330
540
330
54D
330
55A
102
}
330
31
100
AcDbSymbolTableRecord
100
AcDbDimStyleTableRecord
  2
1-100
 70
     0
 40
0.0
 41
60.0
 42
0.0
 43
0.0
 44
200.0
 73
     0
 74
     0
 77
     1
 78
     9
140
220.0
141
0.0
147
80.0
172
     1
174
     1
176
     9
177
     9
178
    30
271
     0
272
     0
279
     2
284
     9
285
     9
286
     9
340
3D6
341
34
342
34
1001
ACAD_DSTYLE_DIMJOGGED_JOGANGLE_SYMBOL
1070
   384
1040
0.7853981633974483
1001
ACAD_DSTYLE_DIMEXT_LENGTH
1070
   378
1040
0.18
  0
ENDTAB
  0
TABLE
  2
BLOCK_RECORD
  5
1
330
0
100
AcDbSymbolTable
 70
    41
  0
BLOCK_RECORD
  5
2
102
{ACAD_XDICTIONARY
360
3
102
}
330
1
100
AcDbSymbolTableRecord
100
AcDbBlockTableRecord
  2
*MODEL_SPACE
340
14
  0
BLOCK_RECORD
  5
17
330
1
100
AcDbSymbolTableRecord
100
AcDbBlockTableRecord
  2
*PAPER_SPACE
340
1A
  0
BLOCK_RECORD
  5
34
102
{ACAD_XDICTIONARY
360
35
102
}
330
1
100
AcDbSymbolTableRecord
100
AcDbBlockTableRecord
  2
DOT
340
0
102
{BLKREFS
331
47E
331
47F
331
48E
331
48F
331
49B
331
49C
331
4A8
331
4A9
331
4B5
331
4B6
331
4C2
331
4C3
331
4CF
331
4D0
331
4DC
331
4DD
331
4E9
331
4EA
331
4F6
331
4F7
331
520
331
521
331
52C
331
52D
331
539
331
53A
331
546
331
547
331
553
331
554
331
560
331
561
331
58A
331
58B
331
596
331
597
331
5A2
331
5A3
331
5AE
331
5AF
331
5BA
331
5BB
331
5C6
331
5C7
331
5D2
331
5D3
331
5DE
331
5DF
331
5EA
331
5EB
331
5F6
331
5F7
331
603
331
604
331
60E
331
60F
331
61A
331
61B
331
626
331
627
331
632
331
633
331
63E
331
63F
102
}
  0
BLOCK_RECORD
  5
502
330
1
100
AcDbSymbolTableRecord
100
AcDbBlockTableRecord
  2
tron
340
0
310
2800000020000000200000000100080000000000000400000000000000000000000000000000000000000000000080000080000000808000800000008000800080800000C0C0C000C0DCC000F0CAA6000020400000206000002080000020A0000020C0000020E00000400000004020000040400000406000004080000040A0
310
000040C0000040E00000600000006020000060400000606000006080000060A0000060C0000060E00000800000008020000080400000806000008080000080A0000080C0000080E00000A0000000A0200000A0400000A0600000A0800000A0A00000A0C00000A0E00000C0000000C0200000C0400000C0600000C0800000C0
310
A00000C0C00000C0E00000E0000000E0200000E0400000E0600000E0800000E0A00000E0C00000E0E00040000000400020004000400040006000400080004000A0004000C0004000E00040200000402020004020400040206000402080004020A0004020C0004020E000404000004040200040404000404060004040800040
310
40A0004040C0004040E00040600000406020004060400040606000406080004060A0004060C0004060E00040800000408020004080400040806000408080004080A0004080C0004080E00040A0000040A0200040A0400040A0600040A0800040A0A00040A0C00040A0E00040C0000040C0200040C0400040C0600040C08000
310
40C0A00040C0C00040C0E00040E0000040E0200040E0400040E0600040E0800040E0A00040E0C00040E0E00080000000800020008000400080006000800080008000A0008000C0008000E00080200000802020008020400080206000802080008020A0008020C0008020E00080400000804020008040400080406000804080
310
008040A0008040C0008040E00080600000806020008060400080606000806080008060A0008060C0008060E00080800000808020008080400080806000808080008080A0008080C0008080E00080A0000080A0200080A0400080A0600080A0800080A0A00080A0C00080A0E00080C0000080C0200080C0400080C0600080C0
310
800080C0A00080C0C00080C0E00080E0000080E0200080E0400080E0600080E0800080E0A00080E0C00080E0E000C0000000C0002000C0004000C0006000C0008000C000A000C000C000C000E000C0200000C0202000C0204000C0206000C0208000C020A000C020C000C020E000C0400000C0402000C0404000C0406000C0
310
408000C040A000C040C000C040E000C0600000C0602000C0604000C0606000C0608000C060A000C060C000C060E000C0800000C0802000C0804000C0806000C0808000C080A000C080C000C080E000C0A00000C0A02000C0A04000C0A06000C0A08000C0A0A000C0A0C000C0A0E000C0C00000C0C02000C0C04000C0C06000
310
C0C08000C0C0A000F0FBFF00A4A0A000808080000000FF0000FF000000FFFF00FF000000FF00FF00FFFF0000FFFFFF0000000000000000000000000000000000000000000000000000000000000000000000000000000000000000000000000007000000000000000000000000000000000000000000000000000000000000
310
00070000000000000000000000000000000000000000000000000000000000000007000000000000000000000000000000000000000000000000000000000000000700000000000000000000000000000000000000000000000000000000070707070707000000000000000000000000000000000000000000000007070700
310
00000700000707000000000000000000000000000000000000000007000000000000070000000007070000000000000000000000000000000000070000000000000000000000000000070000000000000000000000000000000007000000000000000000000000000000070000000000000000000000000000070000000000
310
00000000000000000000000007000000000000000000000000070000000000000000000000000000000000000700000000000000000000000007000000000000000000000000000000000000000700000000000000000000070000000000000000000000000000000000000000070000000000000000000007000000000000
310
00000000000000000000000000000700000000000000000000070000000000000000000000000000000000000707070707070700000707070707070700000000000000000000000000000000000007000000000000000000000700000000000000000000000000000000000000000700000000000000000000070000000000
310
00000000000000000000000000000007000000000000000000000007000000000000000000000000000000000000000700000000000000000000000700000000000000000000000000000000000007000000000000000000000000000700000000000000000000000000000000000700000000000000000000000000000700
310
00000000000000000000000000000700000000000000000000000000000007000000000000000000000000000007000000000000000000000000000000000007000000000000070000000000070000000000000000000000000000000000000007070700000007000000070700000000000000000000000000000000000000
310
00000000070707070707070000000000000000000000000000000000000000000000000000000007000000000000000000000000000000000000000000000000000000000000000700000000000000000000000000000000000000000000000000000000000000070000000000000000000000000000000000000000000000
310
0000000000000000070000000000000000000000000000000000000000000000000000000000000000000000000000000000000000000000
102
{BLKREFS
331
4FD
331
50B
331
50D
331
50F
331
511
331
513
331
515
331
517
331
567
331
569
331
56B
331
56D
331
56F
331
571
331
575
331
577
331
579
102
}
1001
ACAD
1000
DesignCenter Data
1002
{
1070
     1
1070
     4
1002
}
  0
BLOCK_RECORD
  5
69
330
1
100
AcDbSymbolTableRecord
100
AcDbBlockTableRecord
  2
cot
340
0
310
2800000020000000200000000100080000000000000400000000000000000000000000000000000000000000000080000080000000808000800000008000800080800000C0C0C000C0DCC000F0CAA6000020400000206000002080000020A0000020C0000020E00000400000004020000040400000406000004080000040A0
310
000040C0000040E00000600000006020000060400000606000006080000060A0000060C0000060E00000800000008020000080400000806000008080000080A0000080C0000080E00000A0000000A0200000A0400000A0600000A0800000A0A00000A0C00000A0E00000C0000000C0200000C0400000C0600000C0800000C0
310
A00000C0C00000C0E00000E0000000E0200000E0400000E0600000E0800000E0A00000E0C00000E0E00040000000400020004000400040006000400080004000A0004000C0004000E00040200000402020004020400040206000402080004020A0004020C0004020E000404000004040200040404000404060004040800040
310
40A0004040C0004040E00040600000406020004060400040606000406080004060A0004060C0004060E00040800000408020004080400040806000408080004080A0004080C0004080E00040A0000040A0200040A0400040A0600040A0800040A0A00040A0C00040A0E00040C0000040C0200040C0400040C0600040C08000
310
40C0A00040C0C00040C0E00040E0000040E0200040E0400040E0600040E0800040E0A00040E0C00040E0E00080000000800020008000400080006000800080008000A0008000C0008000E00080200000802020008020400080206000802080008020A0008020C0008020E00080400000804020008040400080406000804080
310
008040A0008040C0008040E00080600000806020008060400080606000806080008060A0008060C0008060E00080800000808020008080400080806000808080008080A0008080C0008080E00080A0000080A0200080A0400080A0600080A0800080A0A00080A0C00080A0E00080C0000080C0200080C0400080C0600080C0
310
800080C0A00080C0C00080C0E00080E0000080E0200080E0400080E0600080E0800080E0A00080E0C00080E0E000C0000000C0002000C0004000C0006000C0008000C000A000C000C000C000E000C0200000C0202000C0204000C0206000C0208000C020A000C020C000C020E000C0400000C0402000C0404000C0406000C0
310
408000C040A000C040C000C040E000C0600000C0602000C0604000C0606000C0608000C060A000C060C000C060E000C0800000C0802000C0804000C0806000C0808000C080A000C080C000C080E000C0A00000C0A02000C0A04000C0A06000C0A08000C0A0A000C0A0C000C0A0E000C0C00000C0C02000C0C04000C0C06000
310
C0C08000C0C0A000F0FBFF00A4A0A000808080000000FF0000FF000000FFFF00FF000000FF00FF00FFFF0000FFFFFF0000000000000000000000000000000000000000000000000000000000000000000000000000000000000000000000000000000000000000000000000000000000000000000000000000000000000000
310
00000000000000000000000000000000000000000000000000000000000000000000000000000000000000000000000000000000000000000000000000000000000000000000000000000000000000000000000000000000000000000000000000000000000000000000000000000000000000000000000000000000000000
310
000000000000000000000000000000000000000000000000000000000000000000000000000000000000000000000000000000F0F0F0F0F0F0F0F0F0F0F0F0F0F000000000000000000000000000000000000000000000F0F0F0F0F0F0000000000000000000000000000000000000000000000000F0F0F0F0F0F0F0F0F0F0
310
0000000000000000000000000000000000000000F0F0F0F0F0F0F0F0F0F0F0F0F0F000000000000000000000000000000000000000000000000000F000000000000000000000000000000000000000000000000000000000000000F000000000000000000000000000000000000000000000000000000000000000F0000000
310
000000000000000000000000000000000000000000F0F0F0F0F0F0F0F0F0F0F0F0F0F0F0F0F0F0F0F0F0F0F0F0F0F0F0F0F0F0000000000000000000F000000000000000000000000000000000000000000000000000000000000000F000000000000000000000000000000000000000000000000000000000000000F00000
310
0000000000000000000000000000000000000000000000000000000000F000000000000000000000000000000000000000000000000000000000000000F000000000000000000000000000000000000000000000000000000000000000F000000000000000000000000000000000000000000000000000000000000000F000
310
000000000000000000000000000000000000000000000000000000000000F0000000000000000000000000000000000000000000000000000000000000000000000000000000000000000000000000000000000000000000000000000000000000000000000000000000000000000000000000000000000000000000000000
310
00000000000000000000000000000000000000000000000000000000000000000000000000000000000000000000000000000000000000000000000000000000000000000000000000000000000000000000000000000000000000000000000000000000000000000000000000000000000000000000000000000000000000
310
0000000000000000000000000000000000000000000000000000000000000000000000000000000000000000000000000000000000000000
102
{BLKREFS
331
68
331
17E
102
}
  0
BLOCK_RECORD
  5
103
330
1
100
AcDbSymbolTableRecord
100
AcDbBlockTableRecord
  2
DOOR1T
340
0
102
{BLKREFS
331
303
331
305
331
FE
331
11C
331
210
331
213
102
}
  0
BLOCK_RECORD
  5
186
102
{ACAD_XDICTIONARY
360
187
102
}
330
1
100
AcDbSymbolTableRecord
100
AcDbBlockTableRecord
  2
LAVABO
340
0
102
{BLKREFS
331
2EE
331
2EF
331
180
331
20B
102
}
  0
BLOCK_RECORD
  5
217
330
1
100
AcDbSymbolTableRecord
100
AcDbBlockTableRecord
  2
XIBET1
340
0
102
{BLKREFS
331
216
331
2ED
331
307
331
308
102
}
  0
BLOCK_RECORD
  5
1C8
330
1
100
AcDbSymbolTableRecord
100
AcDbBlockTableRecord
  2
TIEUTRE
340
0
102
{BLKREFS
331
2F5
331
2F9
331
2FD
331
1C7
102
}
  0
BLOCK_RECORD
  5
458
102
{ACAD_XDICTIONARY
360
459
102
}
330
1
100
AcDbSymbolTableRecord
100
AcDbBlockTableRecord
  2
pheuthu
340
0
310
2800000020000000200000000100080000000000000400000000000000000000000000000000000000000000000080000080000000808000800000008000800080800000C0C0C000C0DCC000F0CAA6000020400000206000002080000020A0000020C0000020E00000400000004020000040400000406000004080000040A0
310
000040C0000040E00000600000006020000060400000606000006080000060A0000060C0000060E00000800000008020000080400000806000008080000080A0000080C0000080E00000A0000000A0200000A0400000A0600000A0800000A0A00000A0C00000A0E00000C0000000C0200000C0400000C0600000C0800000C0
310
A00000C0C00000C0E00000E0000000E0200000E0400000E0600000E0800000E0A00000E0C00000E0E00040000000400020004000400040006000400080004000A0004000C0004000E00040200000402020004020400040206000402080004020A0004020C0004020E000404000004040200040404000404060004040800040
310
40A0004040C0004040E00040600000406020004060400040606000406080004060A0004060C0004060E00040800000408020004080400040806000408080004080A0004080C0004080E00040A0000040A0200040A0400040A0600040A0800040A0A00040A0C00040A0E00040C0000040C0200040C0400040C0600040C08000
310
40C0A00040C0C00040C0E00040E0000040E0200040E0400040E0600040E0800040E0A00040E0C00040E0E00080000000800020008000400080006000800080008000A0008000C0008000E00080200000802020008020400080206000802080008020A0008020C0008020E00080400000804020008040400080406000804080
310
008040A0008040C0008040E00080600000806020008060400080606000806080008060A0008060C0008060E00080800000808020008080400080806000808080008080A0008080C0008080E00080A0000080A0200080A0400080A0600080A0800080A0A00080A0C00080A0E00080C0000080C0200080C0400080C0600080C0
310
800080C0A00080C0C00080C0E00080E0000080E0200080E0400080E0600080E0800080E0A00080E0C00080E0E000C0000000C0002000C0004000C0006000C0008000C000A000C000C000C000E000C0200000C0202000C0204000C0206000C0208000C020A000C020C000C020E000C0400000C0402000C0404000C0406000C0
310
408000C040A000C040C000C040E000C0600000C0602000C0604000C0606000C0608000C060A000C060C000C060E000C0800000C0802000C0804000C0806000C0808000C080A000C080C000C080E000C0A00000C0A02000C0A04000C0A06000C0A08000C0A0A000C0A0C000C0A0E000C0C00000C0C02000C0C04000C0C06000
310
C0C08000C0C0A000F0FBFF00A4A0A000808080000000FF0000FF000000FFFF00FF000000FF00FF00FFFF0000FFFFFF0000000000000000000000000000000000000000000000000000000000000000000000000000000000000000000000000E0E0E0E0000000000000000000000000000000000000000000000000E0E0E0E
310
000000000E0E0000000000000000000000000000000000000000A40E000000000000000000000E0EA40000000000000000000000000000000E0E00A40000000000000000000000A40E00000000000000000000000000000E000000A40000000000000000000000A4000E0E0000000000000000000000000E00000000A40000
310
00000000000000A4000000000E000000000000000000000E0000000000A4000000000000000000A400000000000E00000000000000000E00000000000000A4A4A4A4A4A4A4A4A4000000000000000E000000000000000E000000000000A4000000000000000000A40000000000000E0000000000000E00000000000000A400
310
0000000000000000A4000000000000000E00000000000E000000000000A40000000000000000000000A40000000000000E000000000E000000000000A4000000000000000000000000A40000000000000E000000000E0000000000A40000000000000000000000000000A400000000000E000000000E0000000000A4000000
310
0000000000000000000000A40000000000000E0000A4A4A4A4A4A4A400000000000000000000000000000000A4A4A4A4A4A4A40000000E0000000000A4000000000000000000000000000000A400000000000E0000000E0000000000A40000000000000000000000000000A40000000000000E0000000E000000000000A400
310
000000000000000000000000A40000000000000E0000000E00000000000000A40000000000000000000000A40000000000000E00000000000E000000000000A40000000000000000000000A40000000000000E00000000000E00000000000000A4000000000000000000A4000000000000000E0000000000000E0000000000
310
00A4000000000000000000A40000000000000E000000000000000E00000000000000A4A4A4A4A4A4A4A4A4000000000000000E00000000000000000E0000000000A4000000000000000000A400000000000E000000000000000000000E00000000A4000000000000000000A4000000000E00000000000000000000000E0000
310
00A40000000000000000000000A400000E000000000000000000000000000E0E00A40000000000000000000000A40E0E00000000000000000000000000000000A40E000000000000000000000E0EA4000000000000000000000000000000000000000E0E0E0E000000000E0E00000000000000000000000000000000000000
310
000000000000000E0E0E0E000000000000000000000000000000000000000000000000000000000000000000000000000000000000000000
102
{BLKREFS
331
457
331
46B
331
46C
331
46D
331
46E
331
46F
102
}
1001
ACAD
1000
DesignCenter Data
1002
{
1070
     1
1070
     4
1002
}
  0
BLOCK_RECORD
  5
3E3
102
{ACAD_XDICTIONARY
360
3E4
102
}
330
1
100
AcDbSymbolTableRecord
100
AcDbBlockTableRecord
  2
MAY BOM
340
0
310
2800000020000000200000000100080000000000000400000000000000000000000000000000000000000000000080000080000000808000800000008000800080800000C0C0C000C0DCC000F0CAA6000020400000206000002080000020A0000020C0000020E00000400000004020000040400000406000004080000040A0
310
000040C0000040E00000600000006020000060400000606000006080000060A0000060C0000060E00000800000008020000080400000806000008080000080A0000080C0000080E00000A0000000A0200000A0400000A0600000A0800000A0A00000A0C00000A0E00000C0000000C0200000C0400000C0600000C0800000C0
310
A00000C0C00000C0E00000E0000000E0200000E0400000E0600000E0800000E0A00000E0C00000E0E00040000000400020004000400040006000400080004000A0004000C0004000E00040200000402020004020400040206000402080004020A0004020C0004020E000404000004040200040404000404060004040800040
310
40A0004040C0004040E00040600000406020004060400040606000406080004060A0004060C0004060E00040800000408020004080400040806000408080004080A0004080C0004080E00040A0000040A0200040A0400040A0600040A0800040A0A00040A0C00040A0E00040C0000040C0200040C0400040C0600040C08000
310
40C0A00040C0C00040C0E00040E0000040E0200040E0400040E0600040E0800040E0A00040E0C00040E0E00080000000800020008000400080006000800080008000A0008000C0008000E00080200000802020008020400080206000802080008020A0008020C0008020E00080400000804020008040400080406000804080
310
008040A0008040C0008040E00080600000806020008060400080606000806080008060A0008060C0008060E00080800000808020008080400080806000808080008080A0008080C0008080E00080A0000080A0200080A0400080A0600080A0800080A0A00080A0C00080A0E00080C0000080C0200080C0400080C0600080C0
310
800080C0A00080C0C00080C0E00080E0000080E0200080E0400080E0600080E0800080E0A00080E0C00080E0E000C0000000C0002000C0004000C0006000C0008000C000A000C000C000C000E000C0200000C0202000C0204000C0206000C0208000C020A000C020C000C020E000C0400000C0402000C0404000C0406000C0
310
408000C040A000C040C000C040E000C0600000C0602000C0604000C0606000C0608000C060A000C060C000C060E000C0800000C0802000C0804000C0806000C0808000C080A000C080C000C080E000C0A00000C0A02000C0A04000C0A06000C0A08000C0A0A000C0A0C000C0A0E000C0C00000C0C02000C0C04000C0C06000
310
C0C08000C0C0A000F0FBFF00A4A0A000808080000000FF0000FF000000FFFF00FF000000FF00FF00FFFF0000FFFFFF0000000000000000000000000000000000000000000000000000000000000000000000000000000000000000000000000000000000000000000000000000000000000000000000000000000000000000
310
00000000000000000000000000000000000000000000000000000000000000000000000000000000000000000000000000000000000000000000000000000000000000000000000000000000000000000000000000000000000000000000000000000000000000000000000000000000000000000000000000000000000000
310
0000000000000000000000000000000000000000000000000000000000000000000000000000000000000000000000000000000000000000000000000000000000000000000000000000000000000000000000000000A4000000000000000000000000000000000000000000000000000000000000FFFFFFFF0E0E0E0E0E0E
310
0E0E0E0E0E0E0E0E0EFFFF0E0E000000000000000000FFFFFFFF0000000000000000000000000000000000000E000000000000000000FFA4FFFFFF000000000000000000FFA4A4A4A4A4A4A4A4A4FFFF0000000000FFFFFFFFFFFFFFFFFF000000000000FFA4A4A4A4A4A4A4A4A400FF0000000000FFFFFFFFFFFFFFFF00FF
310
FFFFFFFFFFFFA4A4A4A4A4A4A4A4A400FF0000000000FFFFA400FFFF00FF000000FF0000FFFFA4000000A4A4A4A4A400FF00000000A4FFFFA4A4FFFFA4FFA4A4A4FFA4A4FFFFA4A4A4A4A4A4A4A4A4A4FFA4A4000000FFFFFFFFFFFFFFFF00FFFFFFFFFFFFFFA4A4A4A4A4A4A4A4A400FF0000000000FFFFFFFFFFFFFFFFFF
310
000000000000FFA4A4A4A4A4A4A4A4A400FF000000000000FFA4FFFFFF000000000000000000FFFFFFFFFFFFFFFFFFFFFFFF000000000000FFFFFFFF0000000000000000000000000000000000000E000000000000000000FFFFFFFF0E0E0E0E0E0E0E0E0E0E0E0E0E0E0EFFFF0E0E00000000000000000000A40000000000
310
00000000000000000000000000000000000000000000000000000000000000000000000000000000000000000000000000000000000000000000000000000000000000000000000000000000000000000000000000000000000000000000000000000000000000000000000000000000000000000000000000000000000000
310
00000000000000000000000000000000000000000000000000000000000000000000000000000000000000000000000000000000000000000000000000000000000000000000000000000000000000000000000000000000000000000000000000000000000000000000000000000000000000000000000000000000000000
310
0000000000000000000000000000000000000000000000000000000000000000000000000000000000000000000000000000000000000000
102
{BLKREFS
331
3E2
102
}
1001
ACAD
1000
DesignCenter Data
1002
{
1070
     1
1070
     1
1002
}
  0
BLOCK_RECORD
  5
586
330
1
100
AcDbSymbolTableRecord
100
AcDbBlockTableRecord
  2
*D25
340
0
  0
BLOCK_RECORD
  5
592
330
1
100
AcDbSymbolTableRecord
100
AcDbBlockTableRecord
  2
*D26
340
0
  0
BLOCK_RECORD
  5
59E
330
1
100
AcDbSymbolTableRecord
100
AcDbBlockTableRecord
  2
*D27
340
0
  0
BLOCK_RECORD
  5
5AA
330
1
100
AcDbSymbolTableRecord
100
AcDbBlockTableRecord
  2
*D28
340
0
  0
BLOCK_RECORD
  5
5B6
330
1
100
AcDbSymbolTableRecord
100
AcDbBlockTableRecord
  2
*D29
340
0
  0
BLOCK_RECORD
  5
5C2
330
1
100
AcDbSymbolTableRecord
100
AcDbBlockTableRecord
  2
*D30
340
0
  0
BLOCK_RECORD
  5
5CE
330
1
100
AcDbSymbolTableRecord
100
AcDbBlockTableRecord
  2
*D31
340
0
  0
BLOCK_RECORD
  5
5DA
330
1
100
AcDbSymbolTableRecord
100
AcDbBlockTableRecord
  2
*D32
340
0
  0
BLOCK_RECORD
  5
5E6
330
1
100
AcDbSymbolTableRecord
100
AcDbBlockTableRecord
  2
*D33
340
0
  0
BLOCK_RECORD
  5
5F2
330
1
100
AcDbSymbolTableRecord
100
AcDbBlockTableRecord
  2
*D34
340
0
  0
BLOCK_RECORD
  5
5FE
330
1
100
AcDbSymbolTableRecord
100
AcDbBlockTableRecord
  2
*D35
340
0
  0
BLOCK_RECORD
  5
60A
330
1
100
AcDbSymbolTableRecord
100
AcDbBlockTableRecord
  2
*D36
340
0
  0
BLOCK_RECORD
  5
616
330
1
100
AcDbSymbolTableRecord
100
AcDbBlockTableRecord
  2
*D37
340
0
  0
BLOCK_RECORD
  5
622
330
1
100
AcDbSymbolTableRecord
100
AcDbBlockTableRecord
  2
*D38
340
0
  0
BLOCK_RECORD
  5
62E
330
1
100
AcDbSymbolTableRecord
100
AcDbBlockTableRecord
  2
*D39
340
0
  0
BLOCK_RECORD
  5
63A
330
1
100
AcDbSymbolTableRecord
100
AcDbBlockTableRecord
  2
*D40
340
0
  0
ENDTAB
  0
ENDSEC
  0
SECTION
  2
BLOCKS
  0
BLOCK
  5
5
330
2
100
AcDbEntity
  8
0
100
AcDbBlockBegin
  2
*MODEL_SPACE
 70
     0
 10
0.0
 20
0.0
 30
0.0
  3
*MODEL_SPACE
  1

  0
ENDBLK
  5
13
330
2
100
AcDbEntity
  8
0
100
AcDbBlockEnd
  0
BLOCK
  5
18
330
17
100
AcDbEntity
 67
     1
  8
0
100
AcDbBlockBegin
  2
*PAPER_SPACE
 70
     0
 10
0.0
 20
0.0
 30
0.0
  3
*PAPER_SPACE
  1

  0
ENDBLK
  5
19
330
17
100
AcDbEntity
 67
     1
  8
0
100
AcDbBlockEnd
  0
BLOCK
  5
37
330
34
100
AcDbEntity
  8
0
100
AcDbBlockBegin
  2
DOT
 70
     0
 10
0.0
 20
0.0
 30
0.0
  3
DOT
  1

  0
LINE
  5
38
330
34
100
AcDbEntity
  8
TUONG
 62
     8
100
AcDbLine
 10
0.0
 20
0.0
 30
0.0
 11
0.0
 21
-2.533546371882366
 31
0.0
  0
LINE
  5
3D
330
34
100
AcDbEntity
  8
TUONG
 62
     8
100
AcDbLine
 10
0.0
 20
0.0
 30
0.0
 11
-2.533546371882366
 21
0.0
 31
0.0
  0
LWPOLYLINE
  5
3E
330
34
100
AcDbEntity
  8
TUONG
 62
     7
100
AcDbPolyline
 90
        2
 70
     0
 43
0.5
 10
0.8415283797680235
 20
0.8415283797680181
 10
-0.8415283797680146
 20
-0.8415283797680199
  0
LINE
  5
3F
330
34
100
AcDbEntity
  8
TUONG
 62
     8
100
AcDbLine
 10
0.0
 20
0.0
 30
0.0
 11
2.533546371882366
 21
0.0
 31
0.0
  0
LINE
  5
40
330
34
100
AcDbEntity
  8
TUONG
 62
     8
100
AcDbLine
 10
0.0
 20
0.0
 30
0.0
 11
0.0
 21
2.533546371882366
 31
0.0
  0
ENDBLK
  5
41
330
34
100
AcDbEntity
  8
0
100
AcDbBlockEnd
  0
BLOCK
  5
503
330
502
100
AcDbEntity
  8
0
 48
5.0
100
AcDbBlockBegin
  2
tron
 70
     0
 10
0.0
 20
0.0
 30
0.0
  3
tron
  1

  0
CIRCLE
  5
504
330
502
100
AcDbEntity
  8
NET 02
 48
5.0
100
AcDbCircle
 10
437745.6596729962
 20
138687.7225699809
 30
0.0
 40
321.317789763445
  0
LINE
  5
505
330
502
100
AcDbEntity
  8
NET 02
 48
5.0
100
AcDbLine
 10
437745.6596729962
 20
138949.8772787534
 30
0.0
 11
437745.6596729962
 21
139115.6742235386
 31
0.0
  0
LINE
  5
506
330
502
100
AcDbEntity
  8
NET 02
 48
5.0
100
AcDbLine
 10
437483.5049642236
 20
138687.7225699809
 30
0.0
 11
437317.7080194384
 21
138687.7225699809
 31
0.0
  0
LINE
  5
507
330
502
100
AcDbEntity
  8
NET 02
 48
5.0
100
AcDbLine
 10
437745.6596729962
 20
138425.5678612084
 30
0.0
 11
437745.6596729962
 21
138259.7709164232
 31
0.0
  0
LINE
  5
508
330
502
100
AcDbEntity
  8
NET 02
 48
5.0
100
AcDbLine
 10
438007.8143817687
 20
138687.7225699808
 30
0.0
 11
438173.6113265539
 21
138687.7225699808
 31
0.0
  0
ENDBLK
  5
509
330
502
100
AcDbEntity
  8
0
 48
5.0
100
AcDbBlockEnd
  0
BLOCK
  5
6A
330
69
100
AcDbEntity
  8
0
100
AcDbBlockBegin
  2
cot
 70
     0
 10
0.0
 20
0.0
 30
0.0
  3
cot
  1

  0
LINE
  5
6B
330
69
100
AcDbEntity
  8
CUA
100
AcDbLine
 10
23178.87800739231
 20
79173.29556111606
 30
0.0
 11
23179.2247485547
 21
79173.49636565016
 31
0.0
  0
HATCH
  5
6C
330
69
100
AcDbEntity
  8
CUA
100
AcDbHatch
 10
0.0
 20
0.0
 30
0.0
210
0.0
220
0.0
230
1.0
  2
SOLID
 70
     1
 71
     0
 91
        2
 92
        7
 72
     0
 73
     1
 93
        3
 10
23179.22474855468
 20
79173.49636565016
 10
23178.87800739231
 20
79173.49636565015
 10
23178.87800739231
 20
79173.29556111606
 97
        0
 92
        7
 72
     0
 73
     1
 93
        3
 10
23178.87800739231
 20
79173.49636565016
 10
23178.5312662299
 20
79173.49636565016
 10
23178.87800739231
 20
79173.29556111607
 97
        0
 75
     0
 76
     1
 47
0.0052483165064216
 98
        2
 10
23179.04192077221
 20
79173.4361447791
 10
23178.80027011309
 20
79173.44664215383
450
        0
451
        0
460
0.0
461
0.0
452
        1
462
1.0
453
        2
463
0.0
 63
     5
421
      255
463
1.0
 63
     7
421
 16777215
470
LINEAR
1001
ACAD
1010
0.0
1020
0.0
1030
0.0
1000
RTMaterial
1005
0
  0
LINE
  5
6D
330
69
100
AcDbEntity
  8
CUA
100
AcDbLine
 10
23178.87800739231
 20
79173.29556111606
 30
0.0
 11
23178.53126622991
 21
79173.49636565016
 31
0.0
  0
LINE
  5
6E
330
69
100
AcDbEntity
  8
CUA
100
AcDbLine
 10
23179.2247485547
 20
79173.49636565016
 30
0.0
 11
23178.53126622991
 21
79173.49636565016
 31
0.0
  0
LINE
  5
6F
330
69
100
AcDbEntity
  8
CUA
100
AcDbLine
 10
23178.87800739231
 20
79173.29556111606
 30
0.0
 11
23178.87800739231
 21
79174.12649817586
 31
0.0
  0
LINE
  5
70
330
69
100
AcDbEntity
  8
CUA
100
AcDbLine
 10
23180.03567638953
 20
79173.70641159934
 30
0.0
 11
23178.53126622991
 21
79173.70641159934
 31
0.0
  0
LINE
  5
71
330
69
100
AcDbEntity
  8
CUA
100
AcDbLine
 10
23179.2247485547
 20
79173.29556111606
 30
0.0
 11
23178.53126622991
 21
79173.29556111606
 31
0.0
  0
ENDBLK
  5
72
330
69
100
AcDbEntity
  8
0
100
AcDbBlockEnd
  0
BLOCK
  5
104
330
103
100
AcDbEntity
  8
0
100
AcDbBlockBegin
  2
DOOR1T
 70
     0
 10
0.0
 20
0.0
 30
0.0
  3
DOOR1T
  1

  0
ARC
  5
105
330
103
100
AcDbEntity
  8
0
 62
     8
100
AcDbCircle
 10
0.0589423918908079
 20
-0.0433294538972415
 30
0.0
 40
0.9411925434754305
100
AcDbArc
 50
269.0297883702671
 51
2.638644578955678
  0
LINE
  5
106
330
103
100
AcDbEntity
  8
TUONG
 62
     8
100
AcDbLine
 10
0.0
 20
-0.0999999999999997
 30
0.0
 11
0.0
 21
-0.8843870620064357
 31
0.0
  0
LINE
  5
107
330
103
100
AcDbEntity
  8
TUONG
 62
     8
100
AcDbLine
 10
0.0430055755978778
 20
-0.0999999999999997
 30
0.0
 11
0.0430055755978778
 21
-0.8843870620064357
 31
0.0
  0
LINE
  5
108
330
103
100
AcDbEntity
  8
TUONG
 62
     4
100
AcDbLine
 10
0.0272994225977765
 20
-0.0999999999999997
 30
0.0
 11
0.0272994225977765
 21
-0.8843870620064357
 31
0.0
  0
LINE
  5
109
330
103
100
AcDbEntity
  8
TUONG
 62
     4
100
AcDbLine
 10
0.0160188167439515
 20
-0.0999999999999997
 30
0.0
 11
0.0160188167439515
 21
-0.8843870620064357
 31
0.0
  0
LINE
  5
10A
330
103
100
AcDbEntity
  8
0
 62
     4
100
AcDbLine
 10
0.0430055755978778
 20
-0.9843870620064354
 30
0.0
 11
0.0
 21
-0.9843870620064354
 31
0.0
  0
LINE
  5
10B
330
103
100
AcDbEntity
  8
0
 62
     4
100
AcDbLine
 10
0.0
 20
-0.9843870620064354
 30
0.0
 11
0.0
 21
-0.9819715861029703
 31
0.0
  0
LINE
  5
10C
330
103
100
AcDbEntity
  8
0
 62
     4
100
AcDbLine
 10
0.0430055755978778
 20
-0.8843870620064357
 30
0.0
 11
0.0
 21
-0.8843870620064357
 31
0.0
  0
LINE
  5
10D
330
103
100
AcDbEntity
  8
0
 62
     4
100
AcDbLine
 10
0.0430055755978796
 20
-0.8843870620064357
 30
0.0
 11
0.0430055755978778
 21
-0.9843870620064354
 31
0.0
  0
LINE
  5
10E
330
103
100
AcDbEntity
  8
0
 62
     4
100
AcDbLine
 10
0.0
 20
-0.9819715861029703
 30
0.0
 11
0.0
 21
-0.8843870620064357
 31
0.0
  0
LINE
  5
10F
330
103
100
AcDbEntity
  8
TUONG
 62
     4
100
AcDbLine
 10
-0.0148399445163126
 20
-0.909571845836492
 30
0.0
 11
0.0
 21
-0.909571845836492
 31
0.0
  0
LINE
  5
110
330
103
100
AcDbEntity
  8
TUONG
 62
     4
100
AcDbLine
 10
-0.0148399445163126
 20
-0.9589854726471909
 30
0.0
 11
-0.0148399445163126
 21
-0.909571845836492
 31
0.0
  0
LINE
  5
111
330
103
100
AcDbEntity
  8
TUONG
 62
     4
100
AcDbLine
 10
0.0
 20
-0.9589854726471909
 30
0.0
 11
-0.0148399445163126
 21
-0.9589854726471909
 31
0.0
  0
LINE
  5
112
330
103
100
AcDbEntity
  8
0
 62
     4
100
AcDbLine
 10
0.0
 20
-0.0999999999999997
 30
0.0
 11
0.0
 21
0.0
 31
0.0
  0
LINE
  5
113
330
103
100
AcDbEntity
  8
0
 62
     4
100
AcDbLine
 10
0.0430055755978778
 20
0.0
 30
0.0
 11
0.0430055755978796
 21
-0.0999999999999997
 31
0.0
  0
LINE
  5
114
330
103
100
AcDbEntity
  8
TUONG
 62
     4
100
AcDbLine
 10
0.0
 20
-0.0999999999999997
 30
0.0
 11
0.0430055755978778
 21
-0.0999999999999997
 31
0.0
  0
LINE
  5
115
330
103
100
AcDbEntity
  8
TUONG
 62
     4
100
AcDbLine
 10
0.0
 20
0.0
 30
0.0
 11
0.0430055755978778
 21
0.0
 31
0.0
  0
ENDBLK
  5
116
330
103
100
AcDbEntity
  8
0
100
AcDbBlockEnd
  0
BLOCK
  5
189
330
186
100
AcDbEntity
  8
0
100
AcDbBlockBegin
  2
LAVABO
 70
     0
 10
0.0
 20
0.0
 30
0.0
  3
LAVABO
  1

  0
ARC
  5
18A
330
186
100
AcDbEntity
  8
0
 62
     3
100
AcDbCircle
 10
66.17947632127107
 20
-187.5408744497981
 30
0.0
 40
226.5846041253454
100
AcDbArc
 50
306.6257409724409
 51
330.8727544948407
  0
ARC
  5
18B
330
186
100
AcDbEntity
  8
0
 62
     3
100
AcDbCircle
 10
66.17947632126379
 20
-187.5408744497981
 30
0.0
 40
211.5846041253451
100
AcDbArc
 50
306.6257409724409
 51
330.8727544948407
  0
ARC
  5
18C
330
186
100
AcDbEntity
  8
0
 62
     3
100
AcDbCircle
 10
66.17947632127107
 20
-254.2467620680254
 30
0.0
 40
211.5846041253403
100
AcDbArc
 50
29.12724550515926
 51
53.37425902755907
  0
ARC
  5
18D
330
186
100
AcDbEntity
  8
0
 62
     3
100
AcDbCircle
 10
77.19135875938445
 20
-206.8030132525891
 30
0.0
 40
173.725373308033
100
AcDbArc
 50
296.0335151817128
 51
33.1393171990125
  0
ARC
  5
18E
330
186
100
AcDbEntity
  8
0
 62
     3
100
AcDbCircle
 10
66.17947632127107
 20
-254.24676206804
 30
0.0
 40
226.5846041253444
100
AcDbArc
 50
29.12724550515926
 51
53.37425902755907
  0
ARC
  5
18F
330
186
100
AcDbEntity
  8
0
 62
     3
100
AcDbCircle
 10
-23.91796728488771
 20
-306.7967563200073
 30
0.0
 40
292.0634215657294
100
AcDbArc
 50
107.1141729814961
 51
126.6257409724409
  0
ARC
  5
190
330
186
100
AcDbEntity
  8
0
 62
     3
100
AcDbCircle
 10
1.598898247550096
 20
-389.6676777563698
 30
0.0
 40
378.7738594974544
100
AcDbArc
 50
90.0
 51
107.1141729814961
  0
ARC
  5
191
330
186
100
AcDbEntity
  8
0
 62
     3
100
AcDbCircle
 10
1.59889824754282
 20
-389.6676777563698
 30
0.0
 40
378.773859497458
100
AcDbArc
 50
72.88582701850383
 51
90.0
  0
ARC
  5
192
330
186
100
AcDbEntity
  8
0
 62
     3
100
AcDbCircle
 10
27.11576377997335
 20
-306.7967563200073
 30
0.0
 40
292.0634215657328
100
AcDbArc
 50
53.37425902755907
 51
72.88582701850383
  0
ARC
  5
193
330
186
100
AcDbEntity
  8
0
 62
     3
100
AcDbCircle
 10
1.598898247535544
 20
-389.6676777563698
 30
0.0
 40
363.7738594974544
100
AcDbArc
 50
90.0
 51
107.1141729814961
  0
ARC
  5
194
330
186
100
AcDbEntity
  8
0
 62
     3
100
AcDbCircle
 10
1.59889824754282
 20
-389.6676777563698
 30
0.0
 40
363.7738594974581
100
AcDbArc
 50
72.88582701850383
 51
90.0
  0
ARC
  5
195
330
186
100
AcDbEntity
  8
0
 62
     3
100
AcDbCircle
 10
27.11576377997335
 20
-134.9908801978163
 30
0.0
 40
292.0634215657297
100
AcDbArc
 50
287.1141729814962
 51
306.6257409724409
  0
ARC
  5
196
330
186
100
AcDbEntity
  8
0
 62
     3
100
AcDbCircle
 10
1.59889824754282
 20
-52.11995876145374
 30
0.0
 40
378.7738594974544
100
AcDbArc
 50
270.0
 51
287.1141729814962
  0
ARC
  5
197
330
186
100
AcDbEntity
  8
0
 62
     3
100
AcDbCircle
 10
1.598898247550096
 20
-52.11995876145374
 30
0.0
 40
378.7738594974545
100
AcDbArc
 50
252.8858270185038
 51
270.0
  0
ARC
  5
198
330
186
100
AcDbEntity
  8
0
 62
     3
100
AcDbCircle
 10
-23.91796728488771
 20
-134.9908801978163
 30
0.0
 40
292.0634215657299
100
AcDbArc
 50
233.3742590275591
 51
252.8858270185038
  0
ARC
  5
199
330
186
100
AcDbEntity
  8
0
 62
     3
100
AcDbCircle
 10
-62.98167982617815
 20
-187.5408744497981
 30
0.0
 40
226.5846041253452
100
AcDbArc
 50
209.1272455051592
 51
233.3742590275591
  0
ARC
  5
19A
330
186
100
AcDbEntity
  8
0
 62
     3
100
AcDbCircle
 10
-122.8380945189237
 20
-220.8938182589191
 30
0.0
 40
158.0630072335334
100
AcDbArc
 50
180.0
 51
209.1272455051592
  0
ARC
  5
19B
330
186
100
AcDbEntity
  8
0
 62
     3
100
AcDbCircle
 10
-122.8380945189237
 20
-220.8938182589191
 30
0.0
 40
158.063007233534
100
AcDbArc
 50
150.8727544948407
 51
180.0
  0
ARC
  5
19C
330
186
100
AcDbEntity
  8
0
 62
     3
100
AcDbCircle
 10
27.11576377998063
 20
-134.9908801978163
 30
0.0
 40
277.0634215657301
100
AcDbArc
 50
287.1141729814962
 51
306.6257409724409
  0
ARC
  5
19D
330
186
100
AcDbEntity
  8
0
 62
     3
100
AcDbCircle
 10
1.598898247550096
 20
-52.11995876145374
 30
0.0
 40
363.773859497458
100
AcDbArc
 50
270.0
 51
287.1141729814962
  0
ARC
  5
19E
330
186
100
AcDbEntity
  8
0
 62
     3
100
AcDbCircle
 10
1.59889824754282
 20
-52.11995876145374
 30
0.0
 40
363.7738594974543
100
AcDbArc
 50
252.8858270185038
 51
270.0
  0
ARC
  5
19F
330
186
100
AcDbEntity
  8
0
 62
     3
100
AcDbCircle
 10
-23.91796728488043
 20
-134.9908801978163
 30
0.0
 40
277.0634215657363
100
AcDbArc
 50
233.3742590275591
 51
252.8858270185038
  0
ARC
  5
1A0
330
186
100
AcDbEntity
  8
0
 62
     3
100
AcDbCircle
 10
-62.98167982618543
 20
-187.5408744497981
 30
0.0
 40
211.5846041253398
100
AcDbArc
 50
209.1272455051592
 51
233.3742590275591
  0
ARC
  5
1A1
330
186
100
AcDbEntity
  8
0
 62
     3
100
AcDbCircle
 10
-122.8380945189164
 20
-220.8938182589191
 30
0.0
 40
143.0630072335361
100
AcDbArc
 50
180.0
 51
209.1272455051592
  0
ARC
  5
1A2
330
186
100
AcDbEntity
  8
0
 62
     3
100
AcDbCircle
 10
-122.8380945189164
 20
-220.8938182589191
 30
0.0
 40
143.0630072335365
100
AcDbArc
 50
150.8727544948407
 51
180.0
  0
ARC
  5
1A3
330
186
100
AcDbEntity
  8
0
 62
     3
100
AcDbCircle
 10
-62.98167982618543
 20
-254.24676206804
 30
0.0
 40
211.5846041253402
100
AcDbArc
 50
126.6257409724409
 51
150.8727544948407
  0
ARC
  5
1A4
330
186
100
AcDbEntity
  8
0
 62
     3
100
AcDbCircle
 10
133.2542270524754
 20
-263.393818258919
 30
0.0
 40
88.34467119507085
100
AcDbArc
 50
326.4659035831627
 51
0.0
  0
ARC
  5
1A5
330
186
100
AcDbEntity
  8
0
 62
     3
100
AcDbCircle
 10
70.33227532305682
 20
-221.6928170152241
 30
0.0
 40
163.8307329161943
100
AcDbArc
 50
302.0053832081718
 51
326.4659035831627
  0
ARC
  5
1A6
330
186
100
AcDbEntity
  8
0
 62
     3
100
AcDbCircle
 10
28.83068594957513
 20
-155.2902740176505
 30
0.0
 40
242.1357751361494
100
AcDbArc
 50
284.5142785232237
 51
302.0053832081718
  0
ARC
  5
1A7
330
186
100
AcDbEntity
  8
0
 62
     3
100
AcDbCircle
 10
1.59889824754282
 20
-50.10091210098472
 30
0.0
 40
350.7929061579271
100
AcDbArc
 50
270.0
 51
284.5142785232237
  0
ARC
  5
1A8
330
186
100
AcDbEntity
  8
0
 62
     3
100
AcDbCircle
 10
1.59889824754282
 20
-50.10091210098472
 30
0.0
 40
350.7929061579271
100
AcDbArc
 50
255.4857214767762
 51
270.0
  0
ARC
  5
1A9
330
186
100
AcDbEntity
  8
0
 62
     3
100
AcDbCircle
 10
-25.63288945448949
 20
-155.2902740176505
 30
0.0
 40
242.1357751361495
100
AcDbArc
 50
237.9946167918281
 51
255.4857214767762
  0
ARC
  5
1AA
330
186
100
AcDbEntity
  8
0
 62
     3
100
AcDbCircle
 10
-67.13447882797118
 20
-221.6928170152241
 30
0.0
 40
163.8307329161942
100
AcDbArc
 50
213.5340964168373
 51
237.9946167918281
  0
ARC
  5
1AB
330
186
100
AcDbEntity
  8
0
 62
     3
100
AcDbCircle
 10
-130.0564305573825
 20
-263.393818258919
 30
0.0
 40
88.34467119507189
100
AcDbArc
 50
180.0
 51
213.5340964168373
  0
ARC
  5
1AC
330
186
100
AcDbEntity
  8
0
 62
     3
100
AcDbCircle
 10
-130.0564305573825
 20
-263.393818258919
 30
0.0
 40
88.34467119507159
100
AcDbArc
 50
146.4659035831627
 51
180.0
  0
ARC
  5
1AD
330
186
100
AcDbEntity
  8
0
 62
     3
100
AcDbCircle
 10
-67.13447882797118
 20
-305.094819502614
 30
0.0
 40
163.8307329161943
100
AcDbArc
 50
122.0053832081718
 51
146.4659035831627
  0
ARC
  5
1AE
330
186
100
AcDbEntity
  8
0
 62
     3
100
AcDbCircle
 10
-25.63288945448949
 20
-371.497362500173
 30
0.0
 40
242.1357751361494
100
AcDbArc
 50
104.5142785232237
 51
122.0053832081718
  0
ARC
  5
1AF
330
186
100
AcDbEntity
  8
0
 62
     3
100
AcDbCircle
 10
1.59889824754282
 20
-476.6867244168388
 30
0.0
 40
350.7929061579271
100
AcDbArc
 50
90.0
 51
104.5142785232237
  0
ARC
  5
1B0
330
186
100
AcDbEntity
  8
0
 62
     3
100
AcDbCircle
 10
1.59889824754282
 20
-476.6867244168388
 30
0.0
 40
350.7929061579271
100
AcDbArc
 50
75.48572147677624
 51
90.0
  0
ARC
  5
1B1
330
186
100
AcDbEntity
  8
0
 62
     3
100
AcDbCircle
 10
28.83068594957513
 20
-371.497362500173
 30
0.0
 40
242.1357751361531
100
AcDbArc
 50
57.99461679182813
 51
75.48572147677624
  0
ARC
  5
1B2
330
186
100
AcDbEntity
  8
0
 62
     3
100
AcDbCircle
 10
70.33227532305682
 20
-305.094819502614
 30
0.0
 40
163.830732916195
100
AcDbArc
 50
33.53409641683727
 51
57.99461679182813
  0
ARC
  5
1B3
330
186
100
AcDbEntity
  8
0
 62
     3
100
AcDbCircle
 10
133.2542270524754
 20
-263.393818258919
 30
0.0
 40
88.34467119507099
100
AcDbArc
 50
0.0
 51
33.53409641683727
  0
CIRCLE
  5
1B4
330
186
100
AcDbEntity
  8
0
 62
     3
100
AcDbCircle
 10
1.59889824754282
 20
-226.9716699376149
 30
0.0
 40
21.0
  0
CIRCLE
  5
1B5
330
186
100
AcDbEntity
  8
0
 62
     3
100
AcDbCircle
 10
1.59889824754282
 20
-226.9716699376149
 30
0.0
 40
16.0
  0
ARC
  5
1B6
330
186
100
AcDbEntity
  8
0
 62
     3
100
AcDbCircle
 10
-186.9157642158861
 20
-138.1611248875269
 30
0.0
 40
41.86256310034029
100
AcDbArc
 50
311.045395045795
 51
141.0268371448923
  0
ARC
  5
1B7
330
186
100
AcDbEntity
  8
0
 62
     3
100
AcDbCircle
 10
-73.99356226429154
 20
-206.8030132525891
 30
0.0
 40
173.725373308033
100
AcDbArc
 50
146.8606828009875
 51
243.9664848182872
  0
CIRCLE
  5
1B8
330
186
100
AcDbEntity
  8
0
  6
DASHEDX2
 62
     3
100
AcDbCircle
 10
101.5988982475428
 20
-87.5233891994867
 30
0.0
 40
10.5
  0
CIRCLE
  5
1BA
330
186
100
AcDbEntity
  8
0
  6
DASHEDX2
 62
     3
100
AcDbCircle
 10
-98.40110175245719
 20
-88.99449228809681
 30
0.0
 40
10.5
  0
ARC
  5
1BB
330
186
100
AcDbEntity
  8
0
 62
     3
100
AcDbCircle
 10
190.113560710979
 20
-138.1611248875269
 30
0.0
 40
41.86256310034029
100
AcDbArc
 50
38.97316285510772
 51
228.954604954205
  0
ARC
  5
1BC
330
186
100
AcDbEntity
  8
0
 62
     3
100
AcDbCircle
 10
-62.98167982617815
 20
-254.24676206804
 30
0.0
 40
226.5846041253448
100
AcDbArc
 50
126.6257409724409
 51
150.8727544948407
  0
ARC
  5
1BD
330
186
100
AcDbEntity
  8
0
 62
     3
100
AcDbCircle
 10
-23.91796728488043
 20
-306.7967563200073
 30
0.0
 40
277.0634215657342
100
AcDbArc
 50
107.1141729814961
 51
126.6257409724409
  0
ARC
  5
1BE
330
186
100
AcDbEntity
  8
0
 62
     3
100
AcDbCircle
 10
27.11576377997335
 20
-306.7967563200073
 30
0.0
 40
277.0634215657353
100
AcDbArc
 50
53.37425902755907
 51
72.88582701850383
  0
CIRCLE
  5
1BF
330
186
100
AcDbEntity
  8
0
  6
DASHEDX2
 62
     3
100
AcDbCircle
 10
-48.40110175245718
 20
-76.67199697010801
 30
0.0
 40
10.5
  0
CIRCLE
  5
1C0
330
186
100
AcDbEntity
  8
0
 62
     3
100
AcDbCircle
 10
1.59889824754282
 20
-72.81235532145365
 30
0.0
 40
10.5
  0
CIRCLE
  5
1C1
330
186
100
AcDbEntity
  8
0
  6
DASHEDX2
 62
     3
100
AcDbCircle
 10
51.59889824754282
 20
-75.95665430779627
 30
0.0
 40
10.5
  0
ARC
  5
1C2
330
186
100
AcDbEntity
  8
0
 62
     3
100
AcDbCircle
 10
126.0358910140094
 20
-220.8938182589191
 30
0.0
 40
158.063007233534
100
AcDbArc
 50
330.8727544948407
 51
0.0
  0
ARC
  5
1C3
330
186
100
AcDbEntity
  8
0
 62
     3
100
AcDbCircle
 10
126.0358910140094
 20
-220.8938182589191
 30
0.0
 40
158.0630072335334
100
AcDbArc
 50
0.0
 51
29.12724550515926
  0
ARC
  5
1C4
330
186
100
AcDbEntity
  8
0
 62
     3
100
AcDbCircle
 10
126.0358910140094
 20
-220.8938182589191
 30
0.0
 40
143.0630072335373
100
AcDbArc
 50
330.8727544948407
 51
0.0
  0
ARC
  5
1C5
330
186
100
AcDbEntity
  8
0
 62
     3
100
AcDbCircle
 10
126.0358910140094
 20
-220.8938182589191
 30
0.0
 40
143.0630072335325
100
AcDbArc
 50
0.0
 51
29.12724550515926
  0
ENDBLK
  5
1C6
330
186
100
AcDbEntity
  8
0
100
AcDbBlockEnd
  0
BLOCK
  5
218
330
217
100
AcDbEntity
  8
0
100
AcDbBlockBegin
  2
XIBET1
 70
     0
 10
0.0
 20
0.0
 30
0.0
  3
XIBET1
  1

  0
LINE
  5
219
330
217
100
AcDbEntity
  8
0
 62
     3
100
AcDbLine
 10
127.0861703413993
 20
-424.6506685223721
 30
0.0
 11
119.6301829989261
 21
-390.2437544084678
 31
0.0
  0
LINE
  5
21A
330
217
100
AcDbEntity
  8
0
 62
     3
100
AcDbLine
 10
172.1935756897019
 20
-415.6047109146311
 30
0.0
 11
164.4751002267603
 21
-379.9865009922068
 31
0.0
  0
LINE
  5
21B
330
217
100
AcDbEntity
  8
0
 62
     3
100
AcDbLine
 10
-117.5063461614172
 20
-424.6506685223721
 30
0.0
 11
-110.0503588189294
 21
-390.2437544084678
 31
0.0
  0
LINE
  5
21C
330
217
100
AcDbEntity
  8
0
 62
     3
100
AcDbLine
 10
-162.6137515097198
 20
-415.6047109146311
 30
0.0
 11
-154.8952760467782
 21
-379.9865009922068
 31
0.0
  0
LINE
  5
21D
330
217
100
AcDbEntity
  8
0
 62
     3
100
AcDbLine
 10
-121.9131832877447
 20
-699.9087829518248
 30
0.0
 11
-128.1715751958672
 21
-690.7603354052989
 31
0.0
  0
LINE
  5
21E
330
217
100
AcDbEntity
  8
0
 62
     3
100
AcDbLine
 10
-125.7909480303333
 20
-560.0078811577405
 30
0.0
 11
-127.0287127469182
 21
-547.6831279294856
 31
0.0
  0
LINE
  5
21F
330
217
100
AcDbEntity
  8
0
 62
     3
100
AcDbLine
 10
-127.2683859286462
 20
-490.8389216199284
 30
0.0
 11
-125.6026586098287
 21
-473.3372244130296
 31
0.0
  0
LINE
  5
220
330
217
100
AcDbEntity
  8
0
 62
     3
100
AcDbLine
 10
-128.1715751958672
 20
-690.7603354052989
 30
0.0
 11
-134.045102083588
 21
-681.2491115761513
 31
0.0
  0
LINE
  5
221
330
217
100
AcDbEntity
  8
0
 62
     3
100
AcDbLine
 10
-127.0287127469182
 20
-547.6831279294856
 30
0.0
 11
-127.8319759734859
 21
-534.6519066392501
 31
0.0
  0
LINE
  5
222
330
217
100
AcDbEntity
  8
0
 62
     3
100
AcDbLine
 10
-127.8319759734859
 20
-534.6519066392501
 30
0.0
 11
-128.1695179431681
 21
-520.8361281581455
 31
0.0
  0
LINE
  5
223
330
217
100
AcDbEntity
  8
0
 62
     3
100
AcDbLine
 10
-128.1695179431681
 20
-520.8361281581455
 30
0.0
 11
-128.0089065458432
 21
-506.2435522263403
 31
0.0
  0
LINE
  5
224
330
217
100
AcDbEntity
  8
0
 62
     3
100
AcDbLine
 10
-128.0089065458432
 20
-506.2435522263403
 30
0.0
 11
-127.2683859286462
 21
-490.8389216199284
 31
0.0
  0
LINE
  5
225
330
217
100
AcDbEntity
  8
0
 62
     3
100
AcDbLine
 10
-173.1635738011082
 20
-487.5535724557412
 30
0.0
 11
-171.2923704104596
 21
-467.8929504645639
 31
0.0
  0
LINE
  5
226
330
217
100
AcDbEntity
  8
0
 62
     3
100
AcDbLine
 10
-139.5343669750418
 20
-671.3748717680864
 30
0.0
 11
-144.6399728943925
 21
-661.1373762846924
 31
0.0
  0
LINE
  5
227
330
217
100
AcDbEntity
  8
0
 62
     3
100
AcDbLine
 10
-144.6399728943925
 20
-661.1373762846924
 30
0.0
 11
-149.3625228657456
 21
-650.5363854296738
 31
0.0
  0
LINE
  5
228
330
217
100
AcDbEntity
  8
0
 62
     3
100
AcDbLine
 10
-149.3625228657456
 20
-650.5363854296738
 30
0.0
 11
-153.7026199132651
 21
-639.5716595066478
 31
0.0
  0
LINE
  5
229
330
217
100
AcDbEntity
  8
0
 62
     3
100
AcDbLine
 10
-153.7026199132651
 20
-639.5716595066478
 30
0.0
 11
-157.6608670611003
 21
-628.2429588192607
 31
0.0
  0
LINE
  5
22A
330
217
100
AcDbEntity
  8
0
 62
     3
100
AcDbLine
 10
-157.6608670611003
 20
-628.2429588192607
 30
0.0
 11
-161.2378673333569
 21
-616.5500436712172
 31
0.0
  0
LINE
  5
22B
330
217
100
AcDbEntity
  8
0
 62
     3
100
AcDbLine
 10
-161.2378673333569
 20
-616.5500436712172
 30
0.0
 11
-164.4299178978817
 21
-604.4829465389775
 31
0.0
  0
LINE
  5
22C
330
217
100
AcDbEntity
  8
0
 62
     3
100
AcDbLine
 10
-164.4299178978817
 20
-604.4829465389775
 30
0.0
 11
-167.2160924972249
 21
-591.9927885903453
 31
0.0
  0
LINE
  5
22D
330
217
100
AcDbEntity
  8
0
 62
     3
100
AcDbLine
 10
-167.2160924972249
 20
-591.9927885903453
 30
0.0
 11
-169.5711590176342
 21
-579.0209631660836
 31
0.0
  0
LINE
  5
22E
330
217
100
AcDbEntity
  8
0
 62
     3
100
AcDbLine
 10
-169.5711590176342
 20
-579.0209631660836
 30
0.0
 11
-171.4698853453283
 21
-565.5088636068103
 31
0.0
  0
LINE
  5
22F
330
217
100
AcDbEntity
  8
0
 62
     3
100
AcDbLine
 10
-171.4698853453283
 20
-565.5088636068103
 30
0.0
 11
-172.8870393665547
 21
-551.3978832532302
 31
0.0
  0
LINE
  5
230
330
217
100
AcDbEntity
  8
0
 62
     3
100
AcDbLine
 10
-172.8870393665547
 20
-551.3978832532302
 30
0.0
 11
-173.7973889675613
 21
-536.6294154460483
 31
0.0
  0
LINE
  5
231
330
217
100
AcDbEntity
  8
0
 62
     3
100
AcDbLine
 10
-173.7973889675613
 20
-536.6294154460483
 30
0.0
 11
-174.1757020345667
 21
-521.1448535258823
 31
0.0
  0
LINE
  5
232
330
217
100
AcDbEntity
  8
0
 62
     3
100
AcDbLine
 10
-174.1757020345667
 20
-521.1448535258823
 30
0.0
 11
-173.9967464538185
 21
-504.8855908334663
 31
0.0
  0
LINE
  5
233
330
217
100
AcDbEntity
  8
0
 62
     3
100
AcDbLine
 10
-173.9967464538185
 20
-504.8855908334663
 30
0.0
 11
-173.1635738011082
 21
-487.5535724557412
 31
0.0
  0
LINE
  5
234
330
217
100
AcDbEntity
  8
0
 62
     3
100
AcDbLine
 10
-171.2923704104596
 20
-467.8929504645639
 30
0.0
 11
-167.9276063054694
 21
-444.4084286781435
 31
0.0
  0
LINE
  5
235
330
217
100
AcDbEntity
  8
0
 62
     3
100
AcDbLine
 10
-167.9276063054694
 20
-444.4084286781435
 30
0.0
 11
-162.6137515097198
 21
-415.6047109146311
 31
0.0
  0
LINE
  5
236
330
217
100
AcDbEntity
  8
0
 62
     3
100
AcDbLine
 10
-134.045102083588
 20
-681.2491115761513
 30
0.0
 11
-139.5343669750418
 21
-671.3748717680864
 31
0.0
  0
LINE
  5
237
330
217
100
AcDbEntity
  8
0
 62
     3
100
AcDbLine
 10
135.1824827898253
 20
-473.3372244130296
 30
0.0
 11
132.1033380153258
 21
-451.846195537364
 31
0.0
  0
LINE
  5
238
330
217
100
AcDbEntity
  8
0
 62
     3
100
AcDbLine
 10
182.7433979810903
 20
-487.5535724557412
 30
0.0
 11
180.8721945904562
 21
-467.8929504645639
 31
0.0
  0
LINE
  5
239
330
217
100
AcDbEntity
  8
0
 62
     3
100
AcDbLine
 10
108.4089022412099
 20
-649.9240115379215
 30
0.0
 11
112.6081371799828
 21
-641.5039240109035
 31
0.0
  0
LINE
  5
23A
330
217
100
AcDbEntity
  8
0
 62
     3
100
AcDbLine
 10
112.6081371799828
 20
-641.5039240109035
 30
0.0
 11
116.5282845583151
 21
-632.7041343294549
 31
0.0
  0
LINE
  5
23B
330
217
100
AcDbEntity
  8
0
 62
     3
100
AcDbLine
 10
116.5282845583151
 20
-632.7041343294549
 30
0.0
 11
120.1661126337003
 21
-623.5136053240275
 31
0.0
  0
LINE
  5
23C
330
217
100
AcDbEntity
  8
0
 62
     3
100
AcDbLine
 10
120.1661126337003
 20
-623.5136053240275
 30
0.0
 11
123.5171405125311
 21
-613.9227964592282
 31
0.0
  0
LINE
  5
23D
330
217
100
AcDbEntity
  8
0
 62
     3
100
AcDbLine
 10
123.5171405125311
 20
-613.9227964592282
 30
0.0
 11
126.57238387711
 21
-603.935461066605
 31
0.0
  0
LINE
  5
23E
330
217
100
AcDbEntity
  8
0
 62
     3
100
AcDbLine
 10
126.57238387711
 20
-603.935461066605
 30
0.0
 11
129.309156249541
 21
-593.589478952781
 31
0.0
  0
LINE
  5
23F
330
217
100
AcDbEntity
  8
0
 62
     3
100
AcDbLine
 10
129.309156249541
 20
-593.589478952781
 30
0.0
 11
131.6996561281139
 21
-582.8730934589985
 31
0.0
  0
LINE
  5
240
330
217
100
AcDbEntity
  8
0
 62
     3
100
AcDbLine
 10
131.6996561281139
 20
-582.8730934589985
 30
0.0
 11
133.7265298395377
 21
-571.7089706141268
 31
0.0
  0
LINE
  5
241
330
217
100
AcDbEntity
  8
0
 62
     3
100
AcDbLine
 10
133.7265298395377
 20
-571.7089706141268
 30
0.0
 11
135.3707722103299
 21
-560.0078811577405
 31
0.0
  0
LINE
  5
242
330
217
100
AcDbEntity
  8
0
 62
     3
100
AcDbLine
 10
135.3707722103299
 20
-560.0078811577405
 30
0.0
 11
136.6085369269149
 21
-547.6831279294856
 31
0.0
  0
LINE
  5
243
330
217
100
AcDbEntity
  8
0
 62
     3
100
AcDbLine
 10
136.6085369269149
 20
-547.6831279294856
 30
0.0
 11
137.411800153468
 21
-534.6519066392501
 31
0.0
  0
LINE
  5
244
330
217
100
AcDbEntity
  8
0
 62
     3
100
AcDbLine
 10
137.411800153468
 20
-534.6519066392501
 30
0.0
 11
137.7493421231502
 21
-520.8361281581455
 31
0.0
  0
LINE
  5
245
330
217
100
AcDbEntity
  8
0
 62
     3
100
AcDbLine
 10
137.7493421231502
 20
-520.8361281581455
 30
0.0
 11
137.5887307258254
 21
-506.2435522263403
 31
0.0
  0
LINE
  5
246
330
217
100
AcDbEntity
  8
0
 62
     3
100
AcDbLine
 10
137.5887307258254
 20
-506.2435522263403
 30
0.0
 11
136.8482101086283
 21
-490.8389216199284
 31
0.0
  0
LINE
  5
247
330
217
100
AcDbEntity
  8
0
 62
     3
100
AcDbLine
 10
136.8482101086283
 20
-490.8389216199284
 30
0.0
 11
135.1824827898253
 21
-473.3372244130296
 31
0.0
  0
LINE
  5
248
330
217
100
AcDbEntity
  8
0
 62
     3
100
AcDbLine
 10
110.5964129354852
 20
-725.017346166831
 30
0.0
 11
117.8766391769622
 21
-717.0701542957977
 31
0.0
  0
LINE
  5
249
330
217
100
AcDbEntity
  8
0
 62
     3
100
AcDbLine
 10
117.8766391769622
 20
-717.0701542957977
 30
0.0
 11
124.8563253504708
 21
-708.6886747012613
 31
0.0
  0
LINE
  5
24A
330
217
100
AcDbEntity
  8
0
 62
     3
100
AcDbLine
 10
124.8563253504708
 20
-708.6886747012613
 30
0.0
 11
131.4930074677268
 21
-699.9087829518248
 31
0.0
  0
LINE
  5
24B
330
217
100
AcDbEntity
  8
0
 62
     3
100
AcDbLine
 10
131.4930074677268
 20
-699.9087829518248
 30
0.0
 11
137.7513993758493
 21
-690.7603354052989
 31
0.0
  0
LINE
  5
24C
330
217
100
AcDbEntity
  8
0
 62
     3
100
AcDbLine
 10
137.7513993758493
 20
-690.7603354052989
 30
0.0
 11
143.6249262635701
 21
-681.2491115761513
 31
0.0
  0
LINE
  5
24D
330
217
100
AcDbEntity
  8
0
 62
     3
100
AcDbLine
 10
143.6249262635701
 20
-681.2491115761513
 30
0.0
 11
149.1141911550385
 21
-671.3748717680864
 31
0.0
  0
LINE
  5
24E
330
217
100
AcDbEntity
  8
0
 62
     3
100
AcDbLine
 10
149.1141911550385
 20
-671.3748717680864
 30
0.0
 11
154.2197970743746
 21
-661.1373762846924
 31
0.0
  0
LINE
  5
24F
330
217
100
AcDbEntity
  8
0
 62
     3
100
AcDbLine
 10
154.2197970743746
 20
-661.1373762846924
 30
0.0
 11
158.9423470457423
 21
-650.5363854296738
 31
0.0
  0
LINE
  5
250
330
217
100
AcDbEntity
  8
0
 62
     3
100
AcDbLine
 10
158.9423470457423
 20
-650.5363854296738
 30
0.0
 11
163.2824440932618
 21
-639.5716595066478
 31
0.0
  0
LINE
  5
251
330
217
100
AcDbEntity
  8
0
 62
     3
100
AcDbLine
 10
163.2824440932618
 20
-639.5716595066478
 30
0.0
 11
167.2406912410824
 21
-628.2429588192607
 31
0.0
  0
LINE
  5
252
330
217
100
AcDbEntity
  8
0
 62
     3
100
AcDbLine
 10
167.2406912410824
 20
-628.2429588192607
 30
0.0
 11
170.817691513339
 21
-616.5500436712172
 31
0.0
  0
LINE
  5
253
330
217
100
AcDbEntity
  8
0
 62
     3
100
AcDbLine
 10
170.817691513339
 20
-616.5500436712172
 30
0.0
 11
174.0097420778638
 21
-604.4829465389775
 31
0.0
  0
LINE
  5
254
330
217
100
AcDbEntity
  8
0
 62
     3
100
AcDbLine
 10
174.0097420778638
 20
-604.4829465389775
 30
0.0
 11
176.7959166772216
 21
-591.9927885903453
 31
0.0
  0
LINE
  5
255
330
217
100
AcDbEntity
  8
0
 62
     3
100
AcDbLine
 10
176.7959166772216
 20
-591.9927885903453
 30
0.0
 11
179.1509831976163
 21
-579.0209631660836
 31
0.0
  0
LINE
  5
256
330
217
100
AcDbEntity
  8
0
 62
     3
100
AcDbLine
 10
179.1509831976163
 20
-579.0209631660836
 30
0.0
 11
181.0497095253249
 21
-565.5088636068103
 31
0.0
  0
LINE
  5
257
330
217
100
AcDbEntity
  8
0
 62
     3
100
AcDbLine
 10
181.0497095253249
 20
-565.5088636068103
 30
0.0
 11
182.4668635465514
 21
-551.3978832532302
 31
0.0
  0
LINE
  5
258
330
217
100
AcDbEntity
  8
0
 62
     3
100
AcDbLine
 10
182.4668635465514
 20
-551.3978832532302
 30
0.0
 11
183.3772131475434
 21
-536.6294154460483
 31
0.0
  0
LINE
  5
259
330
217
100
AcDbEntity
  8
0
 62
     3
100
AcDbLine
 10
183.3772131475434
 20
-536.6294154460483
 30
0.0
 11
183.7555262145488
 21
-521.1448535258823
 31
0.0
  0
LINE
  5
25A
330
217
100
AcDbEntity
  8
0
 62
     3
100
AcDbLine
 10
183.7555262145488
 20
-521.1448535258823
 30
0.0
 11
183.5765706338006
 21
-504.8855908334663
 31
0.0
  0
LINE
  5
25B
330
217
100
AcDbEntity
  8
0
 62
     3
100
AcDbLine
 10
183.5765706338006
 20
-504.8855908334663
 30
0.0
 11
182.7433979810903
 21
-487.5535724557412
 31
0.0
  0
LINE
  5
25C
330
217
100
AcDbEntity
  8
0
 62
     3
100
AcDbLine
 10
132.1033380153258
 20
-451.846195537364
 30
0.0
 11
127.0861703413993
 21
-424.6506685223721
 31
0.0
  0
LINE
  5
25D
330
217
100
AcDbEntity
  8
0
 62
     3
100
AcDbLine
 10
180.8721945904562
 20
-467.8929504645639
 30
0.0
 11
177.5074304854661
 21
-444.4084286781435
 31
0.0
  0
LINE
  5
25E
330
217
100
AcDbEntity
  8
0
 62
     3
100
AcDbLine
 10
177.5074304854661
 20
-444.4084286781435
 30
0.0
 11
172.1935756897019
 21
-415.6047109146311
 31
0.0
  0
LINE
  5
25F
330
217
100
AcDbEntity
  8
0
 62
     3
100
AcDbLine
 10
-125.6026586098287
 20
-473.3372244130296
 30
0.0
 11
-122.5235138353437
 21
-451.846195537364
 31
0.0
  0
LINE
  5
260
330
217
100
AcDbEntity
  8
0
 62
     3
100
AcDbLine
 10
4.789912089998324
 20
-776.288657552097
 30
0.0
 11
-3.568081367526247
 21
-775.9971292515692
 31
0.0
  0
LINE
  5
261
330
217
100
AcDbEntity
  8
0
 62
     3
100
AcDbLine
 10
-3.568081367526247
 20
-775.9971292515692
 30
0.0
 11
-11.92035530778048
 21
-775.1167630861163
 31
0.0
  0
LINE
  5
262
330
217
100
AcDbEntity
  8
0
 62
     3
100
AcDbLine
 10
-11.92035530778048
 20
-775.1167630861163
 30
0.0
 11
-20.26119021346494
 21
-773.638887159992
 31
0.0
  0
LINE
  5
263
330
217
100
AcDbEntity
  8
0
 62
     3
100
AcDbLine
 10
-20.26119021346494
 20
-773.638887159992
 30
0.0
 11
-28.58486656730929
 21
-771.5548295773914
 31
0.0
  0
LINE
  5
264
330
217
100
AcDbEntity
  8
0
 62
     3
100
AcDbLine
 10
-28.58486656730929
 20
-771.5548295773914
 30
0.0
 11
-36.88566485204319
 21
-768.8559184425976
 31
0.0
  0
LINE
  5
265
330
217
100
AcDbEntity
  8
0
 62
     3
100
AcDbLine
 10
-36.88566485204319
 20
-768.8559184425976
 30
0.0
 11
-45.1578655503672
 21
-765.5334818598057
 31
0.0
  0
LINE
  5
266
330
217
100
AcDbEntity
  8
0
 62
     3
100
AcDbLine
 10
-45.1578655503672
 20
-765.5334818598057
 30
0.0
 11
-53.3957491450401
 21
-761.5788479332405
 31
0.0
  0
LINE
  5
267
330
217
100
AcDbEntity
  8
0
 62
     3
100
AcDbLine
 10
-53.3957491450401
 20
-761.5788479332405
 30
0.0
 11
-61.59359611873333
 21
-756.9833447671554
 31
0.0
  0
LINE
  5
268
330
217
100
AcDbEntity
  8
0
 62
     3
100
AcDbLine
 10
-61.59359611873333
 20
-756.9833447671554
 30
0.0
 11
-69.73956287570581
 21
-751.7457250431471
 31
0.0
  0
LINE
  5
269
330
217
100
AcDbEntity
  8
0
 62
     3
100
AcDbLine
 10
-69.73956287570581
 20
-751.7457250431471
 30
0.0
 11
-77.79730950615885
 21
-745.8944397525047
 31
0.0
  0
LINE
  5
26A
330
217
100
AcDbEntity
  8
0
 62
     3
100
AcDbLine
 10
-77.79730950615885
 20
-745.8944397525047
 30
0.0
 11
-85.7243720217939
 21
-739.4653644638019
 31
0.0
  0
LINE
  5
26B
330
217
100
AcDbEntity
  8
0
 62
     3
100
AcDbLine
 10
-85.7243720217939
 20
-739.4653644638019
 30
0.0
 11
-93.4782864343415
 21
-732.4943747457
 31
0.0
  0
LINE
  5
26C
330
217
100
AcDbEntity
  8
0
 62
     3
100
AcDbLine
 10
-93.4782864343415
 20
-732.4943747457
 30
0.0
 11
-101.0165887554885
 21
-725.017346166831
 31
0.0
  0
LINE
  5
26D
330
217
100
AcDbEntity
  8
0
 62
     3
100
AcDbLine
 10
-101.0165887554885
 20
-725.017346166831
 30
0.0
 11
-108.2968149969656
 21
-717.0701542957977
 31
0.0
  0
LINE
  5
26E
330
217
100
AcDbEntity
  8
0
 62
     3
100
AcDbLine
 10
-108.2968149969656
 20
-717.0701542957977
 30
0.0
 11
-115.2765011704887
 21
-708.6886747012613
 31
0.0
  0
LINE
  5
26F
330
217
100
AcDbEntity
  8
0
 62
     3
100
AcDbLine
 10
-115.2765011704887
 20
-708.6886747012613
 30
0.0
 11
-121.9131832877447
 21
-699.9087829518248
 31
0.0
  0
LINE
  5
270
330
217
100
AcDbEntity
  8
0
 62
     3
100
AcDbLine
 10
4.789912089998324
 20
-730.2606836409831
 30
0.0
 11
-0.3514245023961848
 21
-730.0813529048464
 31
0.0
  0
LINE
  5
271
330
217
100
AcDbEntity
  8
0
 62
     3
100
AcDbLine
 10
-0.3514245023961848
 20
-730.0813529048464
 30
0.0
 11
-5.488690517302529
 21
-729.5398626215174
 31
0.0
  0
LINE
  5
272
330
217
100
AcDbEntity
  8
0
 62
     3
100
AcDbLine
 10
-5.488690517302529
 20
-729.5398626215174
 30
0.0
 11
-10.65042987601009
 21
-728.6252766812103
 31
0.0
  0
LINE
  5
273
330
217
100
AcDbEntity
  8
0
 62
     3
100
AcDbLine
 10
-10.65042987601009
 20
-728.6252766812103
 30
0.0
 11
-15.8717691269685
 21
-727.3179731299169
 31
0.0
  0
LINE
  5
274
330
217
100
AcDbEntity
  8
0
 62
     3
100
AcDbLine
 10
-15.8717691269685
 20
-727.3179731299169
 30
0.0
 11
-21.18390065157837
 21
-725.5907933540002
 31
0.0
  0
LINE
  5
275
330
217
100
AcDbEntity
  8
0
 62
     3
100
AcDbLine
 10
-21.18390065157837
 20
-725.5907933540002
 30
0.0
 11
-26.61202869115914
 21
-723.410646639415
 31
0.0
  0
LINE
  5
276
330
217
100
AcDbEntity
  8
0
 62
     3
100
AcDbLine
 10
-26.61202869115914
 20
-723.410646639415
 30
0.0
 11
-32.17407296728743
 21
-720.7405616906762
 31
0.0
  0
LINE
  5
277
330
217
100
AcDbEntity
  8
0
 62
     3
100
AcDbLine
 10
-32.17407296728743
 20
-720.7405616906762
 30
0.0
 11
-37.88628311673347
 21
-717.5384429012774
 31
0.0
  0
LINE
  5
278
330
217
100
AcDbEntity
  8
0
 62
     3
100
AcDbLine
 10
-37.88628311673347
 20
-717.5384429012774
 30
0.0
 11
-43.7652329563989
 21
-713.7584491258021
 31
0.0
  0
LINE
  5
279
330
217
100
AcDbEntity
  8
0
 62
     3
100
AcDbLine
 10
-43.7652329563989
 20
-713.7584491258021
 30
0.0
 11
-49.77506744318635
 21
-709.3942940158886
 31
0.0
  0
LINE
  5
27A
330
217
100
AcDbEntity
  8
0
 62
     3
100
AcDbLine
 10
-49.77506744318635
 20
-709.3942940158886
 30
0.0
 11
-55.84026018164696
 21
-704.4752485713688
 31
0.0
  0
LINE
  5
27B
330
217
100
AcDbEntity
  8
0
 62
     3
100
AcDbLine
 10
-55.84026018164696
 20
-704.4752485713688
 30
0.0
 11
-61.88533621585339
 21
-699.040553185594
 31
0.0
  0
LINE
  5
27C
330
217
100
AcDbEntity
  8
0
 62
     3
100
AcDbLine
 10
-61.88533621585339
 20
-699.040553185594
 30
0.0
 11
-67.8411060257913
 21
-693.1331937854119
 31
0.0
  0
LINE
  5
27D
330
217
100
AcDbEntity
  8
0
 62
     3
100
AcDbLine
 10
-67.8411060257913
 20
-693.1331937854119
 30
0.0
 11
-73.64380318489384
 21
-686.7988923278462
 31
0.0
  0
LINE
  5
27E
330
217
100
AcDbEntity
  8
0
 62
     3
100
AcDbLine
 10
-73.64380318489384
 20
-686.7988923278462
 30
0.0
 11
-79.23439360104203
 21
-680.0854931391659
 31
0.0
  0
LINE
  5
27F
330
217
100
AcDbEntity
  8
0
 62
     3
100
AcDbLine
 10
-79.23439360104203
 20
-680.0854931391659
 30
0.0
 11
-84.5612509831244
 21
-673.038412933587
 31
0.0
  0
LINE
  5
280
330
217
100
AcDbEntity
  8
0
 62
     3
100
AcDbLine
 10
-84.5612509831244
 20
-673.038412933587
 30
0.0
 11
-89.59807138907308
 21
-665.6756449954992
 31
0.0
  0
LINE
  5
281
330
217
100
AcDbEntity
  8
0
 62
     3
100
AcDbLine
 10
-89.59807138907308
 20
-665.6756449954992
 30
0.0
 11
-94.35240710327162
 21
-657.9767696858326
 31
0.0
  0
LINE
  5
282
330
217
100
AcDbEntity
  8
0
 62
     3
100
AcDbLine
 10
-94.35240710327162
 20
-657.9767696858326
 30
0.0
 11
-98.82907806122785
 21
-649.9240115379215
 31
0.0
  0
LINE
  5
283
330
217
100
AcDbEntity
  8
0
 62
     3
100
AcDbLine
 10
-98.82907806122785
 20
-649.9240115379215
 30
0.0
 11
-103.0283129999861
 21
-641.5039240109035
 31
0.0
  0
LINE
  5
284
330
217
100
AcDbEntity
  8
0
 62
     3
100
AcDbLine
 10
-103.0283129999861
 20
-641.5039240109035
 30
0.0
 11
-106.9484603783185
 21
-632.7041343294549
 31
0.0
  0
LINE
  5
285
330
217
100
AcDbEntity
  8
0
 62
     3
100
AcDbLine
 10
-106.9484603783185
 20
-632.7041343294549
 30
0.0
 11
-110.5862884537037
 21
-623.5136053240275
 31
0.0
  0
LINE
  5
286
330
217
100
AcDbEntity
  8
0
 62
     3
100
AcDbLine
 10
-110.5862884537037
 20
-623.5136053240275
 30
0.0
 11
-113.937316332549
 21
-613.9227964592282
 31
0.0
  0
LINE
  5
287
330
217
100
AcDbEntity
  8
0
 62
     3
100
AcDbLine
 10
-113.937316332549
 20
-613.9227964592282
 30
0.0
 11
-116.9925596971134
 21
-603.935461066605
 31
0.0
  0
LINE
  5
288
330
217
100
AcDbEntity
  8
0
 62
     3
100
AcDbLine
 10
-116.9925596971134
 20
-603.935461066605
 30
0.0
 11
-119.7293320695589
 21
-593.589478952781
 31
0.0
  0
LINE
  5
289
330
217
100
AcDbEntity
  8
0
 62
     3
100
AcDbLine
 10
-119.7293320695589
 20
-593.589478952781
 30
0.0
 11
-122.1198319481318
 21
-582.8730934589985
 31
0.0
  0
LINE
  5
28A
330
217
100
AcDbEntity
  8
0
 62
     3
100
AcDbLine
 10
-122.1198319481318
 20
-582.8730934589985
 30
0.0
 11
-124.1467056595556
 21
-571.7089706141268
 31
0.0
  0
LINE
  5
28B
330
217
100
AcDbEntity
  8
0
 62
     3
100
AcDbLine
 10
-124.1467056595556
 20
-571.7089706141268
 30
0.0
 11
-125.7909480303333
 21
-560.0078811577405
 31
0.0
  0
LINE
  5
28C
330
217
100
AcDbEntity
  8
0
 62
     3
100
AcDbLine
 10
4.789912089998324
 20
-730.2606836409831
 30
0.0
 11
9.931248682378281
 21
-730.0813529048464
 31
0.0
  0
LINE
  5
28D
330
217
100
AcDbEntity
  8
0
 62
     3
100
AcDbLine
 10
9.931248682378281
 20
-730.0813529048464
 30
0.0
 11
15.06851469729918
 21
-729.5398626215174
 31
0.0
  0
LINE
  5
28E
330
217
100
AcDbEntity
  8
0
 62
     3
100
AcDbLine
 10
15.06851469729918
 20
-729.5398626215174
 30
0.0
 11
20.23025405599219
 21
-728.6252766812103
 31
0.0
  0
LINE
  5
28F
330
217
100
AcDbEntity
  8
0
 62
     3
100
AcDbLine
 10
20.23025405599219
 20
-728.6252766812103
 30
0.0
 11
25.45159330696515
 21
-727.3179731299169
 31
0.0
  0
LINE
  5
290
330
217
100
AcDbEntity
  8
0
 62
     3
100
AcDbLine
 10
25.45159330696515
 20
-727.3179731299169
 30
0.0
 11
30.76372483156047
 21
-725.5907933540002
 31
0.0
  0
LINE
  5
291
330
217
100
AcDbEntity
  8
0
 62
     3
100
AcDbLine
 10
30.76372483156047
 20
-725.5907933540002
 30
0.0
 11
36.19185287114124
 21
-723.410646639415
 31
0.0
  0
LINE
  5
292
330
217
100
AcDbEntity
  8
0
 62
     3
100
AcDbLine
 10
36.19185287114124
 20
-723.410646639415
 30
0.0
 11
41.75389714728408
 21
-720.7405616906762
 31
0.0
  0
LINE
  5
293
330
217
100
AcDbEntity
  8
0
 62
     3
100
AcDbLine
 10
41.75389714728408
 20
-720.7405616906762
 30
0.0
 11
47.46610729673011
 21
-717.5384429012774
 31
0.0
  0
LINE
  5
294
330
217
100
AcDbEntity
  8
0
 62
     3
100
AcDbLine
 10
47.46610729673011
 20
-717.5384429012774
 30
0.0
 11
53.34505713639555
 21
-713.7584491258021
 31
0.0
  0
LINE
  5
295
330
217
100
AcDbEntity
  8
0
 62
     3
100
AcDbLine
 10
53.34505713639555
 20
-713.7584491258021
 30
0.0
 11
59.35489162318299
 21
-709.3942940158886
 31
0.0
  0
LINE
  5
296
330
217
100
AcDbEntity
  8
0
 62
     3
100
AcDbLine
 10
59.35489162318299
 20
-709.3942940158886
 30
0.0
 11
65.4200843616436
 21
-704.4752485713688
 31
0.0
  0
LINE
  5
297
330
217
100
AcDbEntity
  8
0
 62
     3
100
AcDbLine
 10
65.4200843616436
 20
-704.4752485713688
 30
0.0
 11
71.46516039583548
 21
-699.040553185594
 31
0.0
  0
LINE
  5
298
330
217
100
AcDbEntity
  8
0
 62
     3
100
AcDbLine
 10
71.46516039583548
 20
-699.040553185594
 30
0.0
 11
77.4209302057734
 21
-693.1331937854119
 31
0.0
  0
LINE
  5
299
330
217
100
AcDbEntity
  8
0
 62
     3
100
AcDbLine
 10
77.4209302057734
 20
-693.1331937854119
 30
0.0
 11
83.22362736487594
 21
-686.7988923278462
 31
0.0
  0
LINE
  5
29A
330
217
100
AcDbEntity
  8
0
 62
     3
100
AcDbLine
 10
83.22362736487594
 20
-686.7988923278462
 30
0.0
 11
88.81421778103868
 21
-680.0854931391659
 31
0.0
  0
LINE
  5
29B
330
217
100
AcDbEntity
  8
0
 62
     3
100
AcDbLine
 10
88.81421778103868
 20
-680.0854931391659
 30
0.0
 11
94.1410751631065
 21
-673.038412933587
 31
0.0
  0
LINE
  5
29C
330
217
100
AcDbEntity
  8
0
 62
     3
100
AcDbLine
 10
94.1410751631065
 20
-673.038412933587
 30
0.0
 11
99.17789556905518
 21
-665.6756449954992
 31
0.0
  0
LINE
  5
29D
330
217
100
AcDbEntity
  8
0
 62
     3
100
AcDbLine
 10
99.17789556905518
 20
-665.6756449954992
 30
0.0
 11
103.9322312832537
 21
-657.9767696858326
 31
0.0
  0
LINE
  5
29E
330
217
100
AcDbEntity
  8
0
 62
     3
100
AcDbLine
 10
4.789912089998324
 20
-776.288657552097
 30
0.0
 11
13.1479055475229
 21
-775.9971292515692
 31
0.0
  0
LINE
  5
29F
330
217
100
AcDbEntity
  8
0
 62
     3
100
AcDbLine
 10
13.1479055475229
 20
-775.9971292515692
 30
0.0
 11
21.50017948776258
 21
-775.1167630861163
 31
0.0
  0
LINE
  5
2A0
330
217
100
AcDbEntity
  8
0
 62
     3
100
AcDbLine
 10
21.50017948776258
 20
-775.1167630861163
 30
0.0
 11
29.84101439344704
 21
-773.638887159992
 31
0.0
  0
LINE
  5
2A1
330
217
100
AcDbEntity
  8
0
 62
     3
100
AcDbLine
 10
29.84101439344704
 20
-773.638887159992
 30
0.0
 11
38.16469074729139
 21
-771.5548295773914
 31
0.0
  0
LINE
  5
2A2
330
217
100
AcDbEntity
  8
0
 62
     3
100
AcDbLine
 10
38.16469074729139
 20
-771.5548295773914
 30
0.0
 11
46.46548903202528
 21
-768.8559184425976
 31
0.0
  0
LINE
  5
2A3
330
217
100
AcDbEntity
  8
0
 62
     3
100
AcDbLine
 10
46.46548903202528
 20
-768.8559184425976
 30
0.0
 11
54.73768973036385
 21
-765.5334818598057
 31
0.0
  0
LINE
  5
2A4
330
217
100
AcDbEntity
  8
0
 62
     3
100
AcDbLine
 10
54.73768973036385
 20
-765.5334818598057
 30
0.0
 11
62.97557332502219
 21
-761.5788479332405
 31
0.0
  0
LINE
  5
2A5
330
217
100
AcDbEntity
  8
0
 62
     3
100
AcDbLine
 10
62.97557332502219
 20
-761.5788479332405
 30
0.0
 11
71.17342029872998
 21
-756.9833447671554
 31
0.0
  0
LINE
  5
2A6
330
217
100
AcDbEntity
  8
0
 62
     3
100
AcDbLine
 10
71.17342029872998
 20
-756.9833447671554
 30
0.0
 11
79.31938705570246
 21
-751.7457250431471
 31
0.0
  0
LINE
  5
2A7
330
217
100
AcDbEntity
  8
0
 62
     3
100
AcDbLine
 10
79.31938705570246
 20
-751.7457250431471
 30
0.0
 11
87.37713368614095
 21
-745.8944397525047
 31
0.0
  0
LINE
  5
2A8
330
217
100
AcDbEntity
  8
0
 62
     3
100
AcDbLine
 10
87.37713368614095
 20
-745.8944397525047
 30
0.0
 11
95.30419620179054
 21
-739.4653644638019
 31
0.0
  0
LINE
  5
2A9
330
217
100
AcDbEntity
  8
0
 62
     3
100
AcDbLine
 10
95.30419620179054
 20
-739.4653644638019
 30
0.0
 11
103.0581106143236
 21
-732.4943747457
 31
0.0
  0
LINE
  5
2AA
330
217
100
AcDbEntity
  8
0
 62
     3
100
AcDbLine
 10
-6.210087910001675
 20
-457.7133699595578
 30
0.0
 11
15.78991208999832
 21
-457.7133699595578
 31
0.0
  0
LINE
  5
2AB
330
217
100
AcDbEntity
  8
0
 62
     3
100
AcDbLine
 10
-6.210087910001675
 20
-401.7133699595579
 30
0.0
 11
15.78991208999832
 21
-401.7133699595579
 31
0.0
  0
ARC
  5
2AC
330
217
100
AcDbEntity
  8
0
 62
     3
100
AcDbCircle
 10
-6.210087910001675
 20
-445.7133699595579
 30
0.0
 40
12.0
100
AcDbArc
 50
180.0
 51
270.0
  0
ARC
  5
2AD
330
217
100
AcDbEntity
  8
0
 62
     3
100
AcDbCircle
 10
-6.210087910001675
 20
-413.7133699595579
 30
0.0
 40
12.0
100
AcDbArc
 50
90.0
 51
180.0
  0
LINE
  5
2AE
330
217
100
AcDbEntity
  8
0
 62
     3
100
AcDbLine
 10
-18.21008791000167
 20
-413.7133699595579
 30
0.0
 11
-18.21008791000167
 21
-445.7133699595579
 31
0.0
  0
ARC
  5
2AF
330
217
100
AcDbEntity
  8
0
 62
     3
100
AcDbCircle
 10
15.78991208999832
 20
-445.7133699595579
 30
0.0
 40
12.0
100
AcDbArc
 50
270.0
 51
0.0
  0
ARC
  5
2B0
330
217
100
AcDbEntity
  8
0
 62
     3
100
AcDbCircle
 10
15.78991208999832
 20
-413.7133699595579
 30
0.0
 40
12.0
100
AcDbArc
 50
0.0
 51
90.0
  0
LINE
  5
2B1
330
217
100
AcDbEntity
  8
0
 62
     3
100
AcDbLine
 10
27.78991208999832
 20
-413.7133699595579
 30
0.0
 11
27.78991208999832
 21
-445.7133699595579
 31
0.0
  0
LINE
  5
2B2
330
217
100
AcDbEntity
  8
0
 62
     3
100
AcDbLine
 10
-122.5235138353437
 20
-451.846195537364
 30
0.0
 11
-117.5063461614172
 21
-424.6506685223721
 31
0.0
  0
LINE
  5
2B3
330
217
100
AcDbEntity
  8
0
 62
     3
100
AcDbLine
 10
103.9322312832537
 20
-657.9767696858326
 30
0.0
 11
108.4089022412099
 21
-649.9240115379215
 31
0.0
  0
LINE
  5
2B4
330
217
100
AcDbEntity
  8
0
 62
     3
100
AcDbLine
 10
103.0581106143236
 20
-732.4943747457
 30
0.0
 11
110.5964129354852
 21
-725.017346166831
 31
0.0
  0
LINE
  5
2B5
330
217
100
AcDbEntity
  8
0
 62
     3
100
AcDbLine
 10
-240.2100879100017
 20
-7.291956453002057
 30
0.0
 11
249.7899120899983
 21
-7.291956453002057
 31
0.0
  0
LINE
  5
2B6
330
217
100
AcDbEntity
  8
0
 62
     3
100
AcDbLine
 10
-130.4223432136914
 20
-282.3254199432268
 30
0.0
 11
-112.7568258907249
 21
-217.2919564530021
 31
0.0
  0
LINE
  5
2B7
330
217
100
AcDbEntity
  8
0
 62
     3
100
AcDbLine
 10
-240.2100879100017
 20
-217.2919564530021
 30
0.0
 11
249.7899120899983
 21
-217.2919564530021
 31
0.0
  0
ARC
  5
2B8
330
217
100
AcDbEntity
  8
0
 62
     3
100
AcDbCircle
 10
-240.2100879100017
 20
-32.29195645300206
 30
0.0
 40
25.0
100
AcDbArc
 50
90.0
 51
180.0
  0
ARC
  5
2B9
330
217
100
AcDbEntity
  8
0
 62
     3
100
AcDbCircle
 10
-240.2100879100017
 20
-192.291956453002
 30
0.0
 40
25.0
100
AcDbArc
 50
180.0
 51
270.0
  0
LINE
  5
2BA
330
217
100
AcDbEntity
  8
0
 62
     3
100
AcDbLine
 10
-227.0479517361946
 20
-217.2919564530021
 30
0.0
 11
-227.0479517361946
 21
-223.6919567074219
 31
0.0
  0
LINE
  5
2BB
330
217
100
AcDbEntity
  8
0
 62
     3
100
AcDbLine
 10
-199.419914945478
 20
-230.2393714562931
 30
0.0
 11
-178.2929678912896
 21
-230.2393714562931
 31
0.0
  0
LINE
  5
2BC
330
217
100
AcDbEntity
  8
0
 62
     3
100
AcDbLine
 10
-178.2929678912896
 20
-217.2919564530021
 30
0.0
 11
-178.2929678912896
 21
-230.2393714562931
 31
0.0
  0
LINE
  5
2BD
330
217
100
AcDbEntity
  8
0
 62
     3
100
AcDbLine
 10
-199.419914945478
 20
-230.2393714562931
 30
0.0
 11
-199.4963079368153
 21
-230.1649020203331
 31
0.0
  0
LINE
  5
2BE
330
217
100
AcDbEntity
  8
0
 62
     3
100
AcDbLine
 10
-199.4963079368153
 20
-230.1649020203331
 30
0.0
 11
-200.2667012159491
 21
-229.5155207909411
 31
0.0
  0
LINE
  5
2BF
330
217
100
AcDbEntity
  8
0
 62
     3
100
AcDbLine
 10
-200.2667012159491
 20
-229.5155207909411
 30
0.0
 11
-200.9934498467901
 21
-228.9877333721379
 31
0.0
  0
LINE
  5
2C0
330
217
100
AcDbEntity
  8
0
 62
     3
100
AcDbLine
 10
-200.9934498467901
 20
-228.9877333721379
 30
0.0
 11
-201.6805215530894
 21
-228.5551063195162
 31
0.0
  0
LINE
  5
2C1
330
217
100
AcDbEntity
  8
0
 62
     3
100
AcDbLine
 10
-201.6805215530894
 20
-228.5551063195162
 30
0.0
 11
-202.331884058598
 21
-228.1912061885814
 31
0.0
  0
LINE
  5
2C2
330
217
100
AcDbEntity
  8
0
 62
     3
100
AcDbLine
 10
-202.331884058598
 20
-228.1912061885814
 30
0.0
 11
-202.9523867893276
 21
-227.8731239943299
 31
0.0
  0
LINE
  5
2C3
330
217
100
AcDbEntity
  8
0
 62
     3
100
AcDbLine
 10
-202.9523867893276
 20
-227.8731239943299
 30
0.0
 11
-203.5504059803479
 21
-227.5920485891693
 31
0.0
  0
LINE
  5
2C4
330
217
100
AcDbEntity
  8
0
 62
     3
100
AcDbLine
 10
-203.5504059803479
 20
-227.5920485891693
 30
0.0
 11
-204.1351995689602
 21
-227.3426932849107
 31
0.0
  0
LINE
  5
2C5
330
217
100
AcDbEntity
  8
0
 62
     3
100
AcDbLine
 10
-204.1351995689602
 20
-227.3426932849107
 30
0.0
 11
-204.7160254924947
 21
-227.1197713933652
 31
0.0
  0
LINE
  5
2C6
330
217
100
AcDbEntity
  8
0
 62
     3
100
AcDbLine
 10
-204.7160254924947
 20
-227.1197713933652
 30
0.0
 11
-205.302141688282
 21
-226.9179962263734
 31
0.0
  0
LINE
  5
2C7
330
217
100
AcDbEntity
  8
0
 62
     3
100
AcDbLine
 10
-205.302141688282
 20
-226.9179962263734
 30
0.0
 11
-205.9028060936526
 21
-226.7320810957171
 31
0.0
  0
LINE
  5
2C8
330
217
100
AcDbEntity
  8
0
 62
     3
100
AcDbLine
 10
-205.9028060936526
 20
-226.7320810957171
 30
0.0
 11
-206.527276645922
 21
-226.556739313266
 31
0.0
  0
LINE
  5
2C9
330
217
100
AcDbEntity
  8
0
 62
     3
100
AcDbLine
 10
-206.527276645922
 20
-226.556739313266
 30
0.0
 11
-207.1848112824209
 21
-226.3866841907729
 31
0.0
  0
LINE
  5
2CA
330
217
100
AcDbEntity
  8
0
 62
     3
100
AcDbLine
 10
-207.1848112824209
 20
-226.3866841907729
 30
0.0
 11
-207.8818023869226
 21
-226.2175101559842
 31
0.0
  0
LINE
  5
2CB
330
217
100
AcDbEntity
  8
0
 62
     3
100
AcDbLine
 10
-207.8818023869226
 20
-226.2175101559842
 30
0.0
 11
-208.6131801290303
 21
-226.048336100037
 31
0.0
  0
LINE
  5
2CC
330
217
100
AcDbEntity
  8
0
 62
     3
100
AcDbLine
 10
-208.6131801290303
 20
-226.048336100037
 30
0.0
 11
-209.371009124834
 21
-225.8791620299744
 31
0.0
  0
LINE
  5
2CD
330
217
100
AcDbEntity
  8
0
 62
     3
100
AcDbLine
 10
-209.371009124834
 20
-225.8791620299744
 30
0.0
 11
-210.1473539904091
 21
-225.7099879528978
 31
0.0
  0
LINE
  5
2CE
330
217
100
AcDbEntity
  8
0
 62
     3
100
AcDbLine
 10
-210.1473539904091
 20
-225.7099879528978
 30
0.0
 11
-210.9342793418018
 21
-225.5408138757921
 31
0.0
  0
LINE
  5
2CF
330
217
100
AcDbEntity
  8
0
 62
     3
100
AcDbLine
 10
-210.9342793418018
 20
-225.5408138757921
 30
0.0
 11
-211.7238497950875
 21
-225.3716398057586
 31
0.0
  0
LINE
  5
2D0
330
217
100
AcDbEntity
  8
0
 62
     3
100
AcDbLine
 10
-211.7238497950875
 20
-225.3716398057586
 30
0.0
 11
-212.5081299663561
 21
-225.2024657498114
 31
0.0
  0
LINE
  5
2D1
330
217
100
AcDbEntity
  8
0
 62
     3
100
AcDbLine
 10
-212.5081299663561
 20
-225.2024657498114
 30
0.0
 11
-213.2791844716539
 21
-225.0332917149935
 31
0.0
  0
LINE
  5
2D2
330
217
100
AcDbEntity
  8
0
 62
     3
100
AcDbLine
 10
-213.2791844716539
 20
-225.0332917149935
 30
0.0
 11
-214.033706902248
 21
-224.8645582636818
 31
0.0
  0
LINE
  5
2D3
330
217
100
AcDbEntity
  8
0
 62
     3
100
AcDbLine
 10
-214.033706902248
 20
-224.8645582636818
 30
0.0
 11
-214.7869067500997
 21
-224.6984681793838
 31
0.0
  0
LINE
  5
2D4
330
217
100
AcDbEntity
  8
0
 62
     3
100
AcDbLine
 10
-214.7869067500997
 20
-224.6984681793838
 30
0.0
 11
-215.558622482391
 21
-224.5376648008823
 31
0.0
  0
LINE
  5
2D5
330
217
100
AcDbEntity
  8
0
 62
     3
100
AcDbLine
 10
-215.558622482391
 20
-224.5376648008823
 30
0.0
 11
-216.3686925662605
 21
-224.3847914669605
 31
0.0
  0
LINE
  5
2D6
330
217
100
AcDbEntity
  8
0
 62
     3
100
AcDbLine
 10
-216.3686925662605
 20
-224.3847914669605
 30
0.0
 11
-217.2369554688757
 21
-224.2424915164884
 31
0.0
  0
LINE
  5
2D7
330
217
100
AcDbEntity
  8
0
 62
     3
100
AcDbLine
 10
-217.2369554688757
 20
-224.2424915164884
 30
0.0
 11
-218.1832496574043
 21
-224.1134082882199
 31
0.0
  0
LINE
  5
2D8
330
217
100
AcDbEntity
  8
0
 62
     3
100
AcDbLine
 10
-218.1832496574043
 20
-224.1134082882199
 30
0.0
 11
-219.2274135989992
 21
-224.0001851209963
 31
0.0
  0
LINE
  5
2D9
330
217
100
AcDbEntity
  8
0
 62
     3
100
AcDbLine
 10
-219.2274135989992
 20
-224.0001851209963
 30
0.0
 11
-220.3892857608134
 21
-223.9054653536005
 31
0.0
  0
LINE
  5
2DA
330
217
100
AcDbEntity
  8
0
 62
     3
100
AcDbLine
 10
-220.3892857608134
 20
-223.9054653536005
 30
0.0
 11
-221.6759198220661
 21
-223.8310112112959
 31
0.0
  0
LINE
  5
2DB
330
217
100
AcDbEntity
  8
0
 62
     3
100
AcDbLine
 10
-221.6759198220661
 20
-223.8310112112959
 30
0.0
 11
-223.0432303102552
 21
-223.7750604653265
 31
0.0
  0
LINE
  5
2DC
330
217
100
AcDbEntity
  8
0
 62
     3
100
AcDbLine
 10
-223.0432303102552
 20
-223.7750604653265
 30
0.0
 11
-224.4343469648866
 21
-223.7349697733298
 31
0.0
  0
LINE
  5
2DD
330
217
100
AcDbEntity
  8
0
 62
     3
100
AcDbLine
 10
-224.4343469648866
 20
-223.7349697733298
 30
0.0
 11
-225.7923995255242
 21
-223.708095792972
 31
0.0
  0
LINE
  5
2DE
330
217
100
AcDbEntity
  8
0
 62
     3
100
AcDbLine
 10
-225.7923995255242
 20
-223.708095792972
 30
0.0
 11
-227.0479517361946
 21
-223.6919567074219
 31
0.0
  0
LINE
  5
2DF
330
217
100
AcDbEntity
  8
0
 62
     3
100
AcDbLine
 10
-154.8952760467782
 20
-379.9865009922068
 30
0.0
 11
-144.3166499402414
 21
-336.0585027290217
 31
0.0
  0
LINE
  5
2E0
330
217
100
AcDbEntity
  8
0
 62
     3
100
AcDbLine
 10
-144.3166499402414
 20
-336.0585027290217
 30
0.0
 11
-130.4223432136914
 21
-282.3254199432268
 31
0.0
  0
LINE
  5
2E1
330
217
100
AcDbEntity
  8
0
 62
     3
100
AcDbLine
 10
-265.2100879100017
 20
-32.29195645300206
 30
0.0
 11
-265.2100879100017
 21
-192.291956453002
 31
0.0
  0
ARC
  5
2E2
330
217
100
AcDbEntity
  8
0
 62
     3
100
AcDbCircle
 10
249.7899120899983
 20
-32.29195645300206
 30
0.0
 40
25.0
100
AcDbArc
 50
0.0
 51
90.0
  0
LINE
  5
2E3
330
217
100
AcDbEntity
  8
0
 62
     3
100
AcDbLine
 10
140.002167393688
 20
-282.3254199432268
 30
0.0
 11
122.336650070707
 21
-217.2919564530021
 31
0.0
  0
ARC
  5
2E4
330
217
100
AcDbEntity
  8
0
 62
     3
100
AcDbCircle
 10
249.7899120899983
 20
-192.291956453002
 30
0.0
 40
25.0
100
AcDbArc
 50
270.0
 51
0.0
  0
LINE
  5
2E5
330
217
100
AcDbEntity
  8
0
 62
     3
100
AcDbLine
 10
164.4751002267603
 20
-379.9865009922068
 30
0.0
 11
153.8964741202235
 21
-336.0585027290217
 31
0.0
  0
LINE
  5
2E6
330
217
100
AcDbEntity
  8
0
 62
     3
100
AcDbLine
 10
153.8964741202235
 20
-336.0585027290217
 30
0.0
 11
140.002167393688
 21
-282.3254199432268
 31
0.0
  0
ARC
  5
2E7
330
217
100
AcDbEntity
  8
0
 62
     3
100
AcDbCircle
 10
13.49981438384748
 20
-875.6547267601709
 30
0.0
 40
500.8876694208511
100
AcDbArc
 50
90.99636270733952
 51
104.2800998947197
  0
CIRCLE
  5
2E8
330
217
100
AcDbEntity
  8
0
 62
     3
100
AcDbCircle
 10
-72.74249111160862
 20
-312.291956453002
 30
0.0
 40
6.724426475325152
  0
CIRCLE
  5
2E9
330
217
100
AcDbEntity
  8
0
 62
     3
100
AcDbCircle
 10
82.32231529160527
 20
-312.291956453002
 30
0.0
 40
6.724426475325152
  0
ARC
  5
2EA
330
217
100
AcDbEntity
  8
0
 62
     3
100
AcDbCircle
 10
-3.919990203865381
 20
-875.6547267601709
 30
0.0
 40
500.8876694208511
100
AcDbArc
 50
75.71990010528029
 51
89.00363729266047
  0
LINE
  5
2EB
330
217
100
AcDbEntity
  8
0
 62
     3
100
AcDbLine
 10
274.7899120899983
 20
-32.29195645300206
 30
0.0
 11
274.7899120899983
 21
-192.291956453002
 31
0.0
  0
ENDBLK
  5
2EC
330
217
100
AcDbEntity
  8
0
100
AcDbBlockEnd
  0
BLOCK
  5
1C9
330
1C8
100
AcDbEntity
  8
0
100
AcDbBlockBegin
  2
TIEUTRE
 70
     0
 10
0.0
 20
0.0
 30
0.0
  3
TIEUTRE
  1

  0
ARC
  5
1CA
330
1C8
100
AcDbEntity
  8
0
 62
     3
100
AcDbCircle
 10
0.318036122193007
 20
-169.7689400359668
 30
0.0
 40
11.89999999999963
100
AcDbArc
 50
0.0
 51
180.0
  0
ARC
  5
1CB
330
1C8
100
AcDbEntity
  8
0
 62
     3
100
AcDbCircle
 10
0.318036122193007
 20
-169.7689400359668
 30
0.0
 40
11.90000000000145
100
AcDbArc
 50
180.0
 51
0.0
  0
ARC
  5
1CC
330
1C8
100
AcDbEntity
  8
0
 62
     3
100
AcDbCircle
 10
0.5163059948645241
 20
-93.48243964508583
 30
0.0
 40
8.5
100
AcDbArc
 50
0.0
 51
180.0
  0
ARC
  5
1CD
330
1C8
100
AcDbEntity
  8
0
 62
     3
100
AcDbCircle
 10
0.5163059948645241
 20
-93.48243964508583
 30
0.0
 40
8.5
100
AcDbArc
 50
180.0
 51
0.0
  0
ARC
  5
1CE
330
1C8
100
AcDbEntity
  8
0
 62
     3
100
AcDbCircle
 10
0.119766249506938
 20
-93.48243964508583
 30
0.0
 40
8.5
100
AcDbArc
 50
0.0
 51
180.0
  0
ARC
  5
1CF
330
1C8
100
AcDbEntity
  8
0
 62
     3
100
AcDbCircle
 10
0.119766249506938
 20
-93.48243964508583
 30
0.0
 40
8.5
100
AcDbArc
 50
180.0
 51
0.0
  0
ARC
  5
1D0
330
1C8
100
AcDbEntity
  8
0
 62
     3
100
AcDbCircle
 10
-68.88249552551497
 20
-121.7947895571415
 30
0.0
 40
186.7005316477051
100
AcDbArc
 50
340.7364570040355
 51
352.9859793646086
  0
ARC
  5
1D1
330
1C8
100
AcDbEntity
  8
0
 62
     3
100
AcDbCircle
 10
-35.03113889112501
 20
-133.6251904763776
 30
0.0
 40
150.8414640092634
100
AcDbArc
 50
319.8449572649601
 51
340.7364570040355
  0
ARC
  5
1D2
330
1C8
100
AcDbEntity
  8
0
 62
     3
100
AcDbCircle
 10
-13.47057139349272
 20
-151.8163028842973
 30
0.0
 40
122.6319861435218
100
AcDbArc
 50
296.1481026548952
 51
319.8449572649601
  0
ARC
  5
1D3
330
1C8
100
AcDbEntity
  8
0
 62
     3
100
AcDbCircle
 10
0.3180361221857311
 20
-179.902643919122
 30
0.0
 40
91.343517821384
100
AcDbArc
 50
270.0
 51
296.1481026548952
  0
ARC
  5
1D4
330
1C8
100
AcDbEntity
  8
0
 62
     3
100
AcDbCircle
 10
0.318036122193007
 20
-179.902643919122
 30
0.0
 40
91.34351782138043
100
AcDbArc
 50
243.8518973451048
 51
270.0
  0
ARC
  5
1D5
330
1C8
100
AcDbEntity
  8
0
 62
     3
100
AcDbCircle
 10
14.10664363787146
 20
-151.8163028842973
 30
0.0
 40
122.6319861435254
100
AcDbArc
 50
220.15504273504
 51
243.8518973451048
  0
ARC
  5
1D6
330
1C8
100
AcDbEntity
  8
0
 62
     3
100
AcDbCircle
 10
35.66721113550375
 20
-133.6251904763776
 30
0.0
 40
150.8414640092591
100
AcDbArc
 50
199.2635429959645
 51
220.15504273504
  0
ARC
  5
1D7
330
1C8
100
AcDbEntity
  8
0
 62
     3
100
AcDbCircle
 10
3.797411672498128
 20
-270.1728048070945
 30
0.0
 40
168.6839318155652
100
AcDbArc
 50
23.35568656288795
 51
87.78462972711816
  0
ARC
  5
1D8
330
1C8
100
AcDbEntity
  8
0
 62
     3
100
AcDbCircle
 10
-267.6775919618922
 20
-140.3618520081509
 30
0.0
 40
438.1344663150599
100
AcDbArc
 50
12.96626016677128
 51
18.20850617558379
  0
ARC
  5
1D9
330
1C8
100
AcDbEntity
  8
0
 62
     3
100
AcDbCircle
 10
-68.88249552551497
 20
-121.7947895571415
 30
0.0
 40
241.7005316477025
100
AcDbArc
 50
0.0
 51
19.26354299596446
  0
ARC
  5
1DA
330
1C8
100
AcDbEntity
  8
0
 62
     3
100
AcDbCircle
 10
-68.88249552551497
 20
-121.794789557156
 30
0.0
 40
241.7005316477026
100
AcDbArc
 50
340.7364570040355
 51
0.0
  0
ARC
  5
1DB
330
1C8
100
AcDbEntity
  8
0
 62
     3
100
AcDbCircle
 10
-35.03113889113229
 20
-133.6251904763776
 30
0.0
 40
205.8414640092694
100
AcDbArc
 50
319.8449572649601
 51
340.7364570040355
  0
ARC
  5
1DC
330
1C8
100
AcDbEntity
  8
0
 62
     3
100
AcDbCircle
 10
-13.47057139349272
 20
-151.8163028842973
 30
0.0
 40
177.6319861435242
100
AcDbArc
 50
296.1481026548952
 51
319.8449572649601
  0
ARC
  5
1DD
330
1C8
100
AcDbEntity
  8
0
 62
     3
100
AcDbCircle
 10
0.3180361221857311
 20
-179.902643919122
 30
0.0
 40
146.343517821384
100
AcDbArc
 50
270.0
 51
296.1481026548952
  0
ARC
  5
1DE
330
1C8
100
AcDbEntity
  8
0
 62
     3
100
AcDbCircle
 10
0.3180361221857311
 20
-179.902643919122
 30
0.0
 40
146.3435178213803
100
AcDbArc
 50
243.8518973451048
 51
270.0
  0
LINE
  5
1DF
330
1C8
100
AcDbEntity
  8
0
 62
     3
100
AcDbLine
 10
-3.93307553928389
 20
5.574923431020579
 30
0.0
 11
4.569147783662629
 21
5.574923431020579
 31
0.0
  0
LINE
  5
1E0
330
1C8
100
AcDbEntity
  8
0
 62
     3
100
AcDbLine
 10
-3.93307553928389
 20
5.574923431020579
 30
0.0
 11
-3.93307553928389
 21
-3.455369010145659
 31
0.0
  0
LINE
  5
1E1
330
1C8
100
AcDbEntity
  8
0
 62
     3
100
AcDbLine
 10
4.569147783662629
 20
5.574923431020579
 30
0.0
 11
4.569147783662629
 21
-3.455369010145659
 31
0.0
  0
LINE
  5
1E2
330
1C8
100
AcDbEntity
  8
0
 62
     3
100
AcDbLine
 10
4.318036122185731
 20
-85.88001581848947
 30
0.0
 11
4.318036122185731
 21
-86.08991993211384
 31
0.0
  0
LINE
  5
1E3
330
1C8
100
AcDbEntity
  8
0
 62
     3
100
AcDbLine
 10
-3.681963877814268
 20
-85.88001581848947
 30
0.0
 11
-3.681963877814268
 21
-86.08991993211384
 31
0.0
  0
CIRCLE
  5
1E4
330
1C8
100
AcDbEntity
  8
0
 62
     3
100
AcDbCircle
 10
0.5163059948645241
 20
-93.48243964508583
 30
0.0
 40
12.59579517547573
  0
LINE
  5
1E5
330
1C8
100
AcDbEntity
  8
0
 62
     3
100
AcDbLine
 10
-9.681963877814268
 20
-101.6149503192573
 30
0.0
 11
-9.681963877814268
 21
-152.3546834076696
 31
0.0
  0
LINE
  5
1E6
330
1C8
100
AcDbEntity
  8
0
 62
     3
100
AcDbLine
 10
10.31803612218573
 20
-101.6149503192573
 30
0.0
 11
10.31803612218573
 21
-152.3546834076696
 31
0.0
  0
LINE
  5
1E7
330
1C8
100
AcDbEntity
  8
0
 62
     3
100
AcDbLine
 10
-7.681963877814268
 20
-103.0449930277973
 30
0.0
 11
-7.681963877814268
 21
-151.350027638211
 31
0.0
  0
LINE
  5
1E8
330
1C8
100
AcDbEntity
  8
0
 62
     3
100
AcDbLine
 10
-5.681963877814268
 20
-104.4476348867465
 30
0.0
 11
-5.681963877814268
 21
-150.6050068823533
 31
0.0
  0
LINE
  5
1E9
330
1C8
100
AcDbEntity
  8
0
 62
     3
100
AcDbLine
 10
-3.681963877814268
 20
-105.3579853663832
 30
0.0
 11
-3.681963877814268
 21
-150.0901104489166
 31
0.0
  0
LINE
  5
1EA
330
1C8
100
AcDbEntity
  8
0
 62
     3
100
AcDbLine
 10
-1.681963877814268
 20
-105.8849259147537
 30
0.0
 11
-1.681963877814268
 21
-149.7875403373473
 31
0.0
  0
LINE
  5
1EB
330
1C8
100
AcDbEntity
  8
0
 62
     3
100
AcDbLine
 10
0.3180361221857311
 20
-106.0766742450942
 30
0.0
 11
0.3180361221857311
 21
-149.6876967000571
 31
0.0
  0
LINE
  5
1EC
330
1C8
100
AcDbEntity
  8
0
 62
     3
100
AcDbLine
 10
0.3180361221857311
 20
-106.0766742450942
 30
0.0
 11
0.3180361221857311
 21
-149.6876967000571
 31
0.0
  0
LINE
  5
1ED
330
1C8
100
AcDbEntity
  8
0
 62
     3
100
AcDbLine
 10
2.318036122185731
 20
-105.9487071157782
 30
0.0
 11
2.318036122185731
 21
-149.7875403373473
 31
0.0
  0
LINE
  5
1EE
330
1C8
100
AcDbEntity
  8
0
 62
     3
100
AcDbLine
 10
4.318036122185731
 20
-105.4908077332657
 30
0.0
 11
4.318036122185731
 21
-150.0901104489166
 31
0.0
  0
LINE
  5
1EF
330
1C8
100
AcDbEntity
  8
0
 62
     3
100
AcDbLine
 10
6.318036122185731
 20
-104.662510469192
 30
0.0
 11
6.318036122185731
 21
-150.6050068823533
 31
0.0
  0
LINE
  5
1F0
330
1C8
100
AcDbEntity
  8
0
 62
     3
100
AcDbLine
 10
8.318036122185731
 20
-103.3711737967824
 30
0.0
 11
8.318036122185731
 21
-151.350027638211
 31
0.0
  0
LINE
  5
1F1
330
1C8
100
AcDbEntity
  8
0
 62
     3
100
AcDbLine
 10
-9.681963877814268
 20
-3.455369010145659
 30
0.0
 11
-9.681963877814268
 21
-85.5716784545366
 31
0.0
  0
LINE
  5
1F2
330
1C8
100
AcDbEntity
  8
0
 62
     3
100
AcDbLine
 10
10.31803612218573
 20
-3.455369010145659
 30
0.0
 11
10.31803612218573
 21
-85.5716784545366
 31
0.0
  0
LINE
  5
1F3
330
1C8
100
AcDbEntity
  8
0
 62
     3
100
AcDbLine
 10
-9.681963877814268
 20
-3.455369010145659
 30
0.0
 11
-9.681963877814268
 21
-86.08991993211384
 31
0.0
  0
LINE
  5
1F4
330
1C8
100
AcDbEntity
  8
0
 62
     3
100
AcDbLine
 10
10.31803612218573
 20
-3.455369010145659
 30
0.0
 11
10.31803612218573
 21
-85.5716784545366
 31
0.0
  0
LINE
  5
1F5
330
1C8
100
AcDbEntity
  8
0
 62
     3
100
AcDbLine
 10
-7.681963877814268
 20
-3.455369010145659
 30
0.0
 11
-7.681963877814268
 21
-83.91988626235979
 31
0.0
  0
LINE
  5
1F6
330
1C8
100
AcDbEntity
  8
0
 62
     3
100
AcDbLine
 10
-5.681963877814268
 20
-3.455369010145659
 30
0.0
 11
-5.681963877814268
 21
-82.51724440341059
 31
0.0
  0
LINE
  5
1F7
330
1C8
100
AcDbEntity
  8
0
 62
     3
100
AcDbLine
 10
-3.681963877814268
 20
-3.455369010145659
 30
0.0
 11
-3.681963877814268
 21
-81.6068939237739
 31
0.0
  0
LINE
  5
1F8
330
1C8
100
AcDbEntity
  8
0
 62
     3
100
AcDbLine
 10
-1.681963877814268
 20
-3.455369010145659
 30
0.0
 11
-1.681963877814268
 21
-81.07995337540343
 31
0.0
  0
LINE
  5
1F9
330
1C8
100
AcDbEntity
  8
0
 62
     3
100
AcDbLine
 10
0.3180361221857311
 20
-3.455369010145659
 30
0.0
 11
0.3180361221857311
 21
-80.88820504506292
 31
0.0
  0
LINE
  5
1FA
330
1C8
100
AcDbEntity
  8
0
 62
     3
100
AcDbLine
 10
0.3180361221857311
 20
-3.455369010145659
 30
0.0
 11
0.3180361221857311
 21
-80.88820504506292
 31
0.0
  0
LINE
  5
1FB
330
1C8
100
AcDbEntity
  8
0
 62
     3
100
AcDbLine
 10
2.318036122185731
 20
-3.455369010145659
 30
0.0
 11
2.318036122185731
 21
-81.01617217439343
 31
0.0
  0
LINE
  5
1FC
330
1C8
100
AcDbEntity
  8
0
 62
     3
100
AcDbLine
 10
4.318036122185731
 20
-3.455369010145659
 30
0.0
 11
4.318036122185731
 21
-81.47407155689142
 31
0.0
  0
LINE
  5
1FD
330
1C8
100
AcDbEntity
  8
0
 62
     3
100
AcDbLine
 10
6.318036122185731
 20
-3.455369010145659
 30
0.0
 11
6.318036122185731
 21
-82.30236882096505
 31
0.0
  0
LINE
  5
1FE
330
1C8
100
AcDbEntity
  8
0
 62
     3
100
AcDbLine
 10
8.318036122185731
 20
-3.455369010145659
 30
0.0
 11
8.318036122185731
 21
-83.59370549337473
 31
0.0
  0
ARC
  5
1FF
330
1C8
100
AcDbEntity
  8
0
 62
     3
100
AcDbCircle
 10
-21.30096882185535
 20
-161.3848757850064
 30
0.0
 40
193.6885193164424
100
AcDbArc
 50
4.839188787462933
 51
54.6248311055238
  0
CIRCLE
  5
200
330
1C8
100
AcDbEntity
  8
0
 62
     3
100
AcDbCircle
 10
0.3180361221857311
 20
-169.7689400359668
 30
0.0
 40
20.08124333591331
  0
ARC
  5
201
330
1C8
100
AcDbEntity
  8
0
 62
     3
100
AcDbCircle
 10
69.5185677698937
 20
-121.794789557156
 30
0.0
 40
241.7005316477038
100
AcDbArc
 50
160.7364570040355
 51
180.0
  0
ARC
  5
202
330
1C8
100
AcDbEntity
  8
0
 62
     3
100
AcDbCircle
 10
268.3136642062782
 20
-140.3618520081509
 30
0.0
 40
438.1344663150652
100
AcDbArc
 50
161.7914938244162
 51
167.0337398332287
  0
ARC
  5
203
330
1C8
100
AcDbEntity
  8
0
 62
     3
100
AcDbCircle
 10
35.66721113551102
 20
-133.6251904763776
 30
0.0
 40
205.84146400927
100
AcDbArc
 50
199.2635429959645
 51
220.15504273504
  0
ARC
  5
204
330
1C8
100
AcDbEntity
  8
0
 62
     3
100
AcDbCircle
 10
69.5185677698937
 20
-121.794789557156
 30
0.0
 40
241.7005316477043
100
AcDbArc
 50
180.0
 51
199.2635429959645
  0
ARC
  5
205
330
1C8
100
AcDbEntity
  8
0
 62
     3
100
AcDbCircle
 10
69.5185677698937
 20
-121.7947895571415
 30
0.0
 40
186.700531647707
100
AcDbArc
 50
187.0140206353914
 51
199.2635429959645
  0
ARC
  5
206
330
1C8
100
AcDbEntity
  8
0
 62
     3
100
AcDbCircle
 10
14.10664363787146
 20
-151.8163028842973
 30
0.0
 40
177.6319861435241
100
AcDbArc
 50
220.15504273504
 51
243.8518973451048
  0
ARC
  5
207
330
1C8
100
AcDbEntity
  8
0
 62
     3
100
AcDbCircle
 10
22.52698476511796
 20
-161.6484991619654
 30
0.0
 40
194.245284680028
100
AcDbArc
 50
125.4720383693975
 51
173.8443879699919
  0
LINE
  5
208
330
1C8
100
AcDbEntity
  8
0
 62
     3
100
AcDbLine
 10
-147.8815129477916
 20
-3.455369010145659
 30
0.0
 11
148.5175851921703
 21
-3.455369010145659
 31
0.0
  0
ARC
  5
209
330
1C8
100
AcDbEntity
  8
0
 62
     3
100
AcDbCircle
 10
-3.16133942811939
 20
-270.1728048070945
 30
0.0
 40
168.6839318155655
100
AcDbArc
 50
92.21537027288183
 51
156.644313437112
  0
ENDBLK
  5
20A
330
1C8
100
AcDbEntity
  8
0
100
AcDbBlockEnd
  0
BLOCK
  5
45B
330
458
100
AcDbEntity
  8
0
 48
25.0
100
AcDbBlockBegin
  2
pheuthu
 70
     0
 10
0.0
 20
0.0
 30
0.0
  3
pheuthu
  1

  0
CIRCLE
  5
45C
330
458
100
AcDbEntity
  8
TBNUOC
 48
25.0
100
AcDbCircle
 10
0.0
 20
0.0
 30
0.0
 40
60.20769942702799
  0
LINE
  5
45D
330
458
100
AcDbEntity
  8
TBNUOC
 62
     8
 48
25.0
100
AcDbLine
 10
36.85954065059559
 20
-0.3110793275700416
 30
0.0
 11
18.88008859580077
 21
30.83024512362317
 31
0.0
  0
LINE
  5
45E
330
458
100
AcDbEntity
  8
TBNUOC
 62
     8
 48
25.0
100
AcDbLine
 10
18.88029377689963
 20
30.83032616178389
 30
0.0
 11
30.91051190059079
 21
51.66727517818799
 31
0.0
  0
LINE
  5
45F
330
458
100
AcDbEntity
  8
TBNUOC
 62
     8
 48
25.0
100
AcDbLine
 10
18.88026136747066
 20
30.83010795063456
 30
0.0
 11
-17.07864274211897
 21
30.83010795063456
 31
0.0
  0
LINE
  5
460
330
458
100
AcDbEntity
  8
TBNUOC
 62
     8
 48
25.0
100
AcDbLine
 10
-17.07881539595109
 20
30.83024519163882
 30
0.0
 11
-29.56145439042666
 21
52.45081014261813
 31
0.0
  0
LINE
  5
461
330
458
100
AcDbEntity
  8
TBNUOC
 62
     8
 48
25.0
100
AcDbLine
 10
-35.05809479688833
 20
-0.3112163644400425
 30
0.0
 11
-60.20689507581846
 21
-0.3112163644400425
 31
0.0
  0
LINE
  5
462
330
458
100
AcDbEntity
  8
TBNUOC
 62
     8
 48
25.0
100
AcDbLine
 10
-35.05806226965069
 20
-0.3109983573958743
 30
0.0
 11
-17.07861021485587
 21
30.83032609373913
 31
0.0
  0
LINE
  5
463
330
458
100
AcDbEntity
  8
TBNUOC
 62
     8
 48
25.0
100
AcDbLine
 10
-17.07881527809513
 20
-31.45240364264464
 30
0.0
 11
-35.05826733288996
 21
-0.3110791914514266
 31
0.0
  0
LINE
  5
464
330
458
100
AcDbEntity
  8
TBNUOC
 62
     8
 48
25.0
100
AcDbLine
 10
-29.28991689833129
 20
-52.60292613902129
 30
0.0
 11
-17.07861033269
 21
-31.45232274054433
 31
0.0
  0
LINE
  5
465
330
458
100
AcDbEntity
  8
TBNUOC
 62
     8
 48
25.0
100
AcDbLine
 10
18.88026136747066
 20
-31.45254067948554
 30
0.0
 11
-17.07864274211897
 21
-31.45254067948554
 31
0.0
  0
LINE
  5
466
330
458
100
AcDbEntity
  8
TBNUOC
 62
     8
 48
25.0
100
AcDbLine
 10
18.88029365904003
 20
-31.45232267249958
 30
0.0
 11
36.85974571383486
 21
-0.3109982213645708
 31
0.0
  0
LINE
  5
467
330
458
100
AcDbEntity
  8
TBNUOC
 62
     8
 48
25.0
100
AcDbLine
 10
60.20689507581846
 20
-0.3112163644400425
 30
0.0
 11
36.85971342228731
 21
-0.3112163644400425
 31
0.0
  0
LINE
  5
468
330
458
100
AcDbEntity
  8
TBNUOC
 62
     8
 48
25.0
100
AcDbLine
 10
30.64300683738475
 20
-51.82637554622488
 30
0.0
 11
18.88008871363854
 21
-31.4524037106894
 31
0.0
  0
LWPOLYLINE
  5
469
330
458
100
AcDbEntity
  8
TBNUOC
 48
25.0
100
AcDbPolyline
 90
        4
 70
     1
 43
0.0
 10
-75.0
 20
-75.0
 10
75.0
 20
-75.0
 10
75.0
 20
75.0
 10
-75.0
 20
75.0
  0
ENDBLK
  5
46A
330
458
100
AcDbEntity
  8
0
 48
25.0
100
AcDbBlockEnd
  0
BLOCK
  5
3E6
330
3E3
100
AcDbEntity
  8
0
100
AcDbBlockBegin
  2
MAY BOM
 70
     0
 10
0.0
 20
0.0
 30
0.0
  3
MAY BOM
  1

  0
LINE
  5
3E7
330
3E3
100
AcDbEntity
  8
TBNUOC
  6
Continuous
 48
800.0
100
AcDbLine
 10
-72.14062500007276
 20
192.3749999999054
 30
0.0
 11
-72.14062500007276
 21
129.8531249999287
 31
0.0
  0
LINE
  5
3E8
330
3E3
100
AcDbEntity
  8
TBNUOC
 62
     8
100
AcDbLine
 10
-63.52010081861227
 20
135.2049188952332
 30
0.0
 11
-62.52187500006403
 21
173.137499999917
 31
0.0
  0
LINE
  5
3E9
330
3E3
100
AcDbEntity
  8
TBNUOC
 62
     8
100
AcDbLine
 10
-14.42812500002037
 20
128.4497682878027
 30
0.0
 11
-14.42812500002037
 21
168.3281249999199
 31
0.0
  0
LINE
  5
3EA
330
3E3
100
AcDbEntity
  8
TBNUOC
 62
     8
100
AcDbLine
 10
-24.04687500002911
 20
173.137499999917
 30
0.0
 11
-23.02851404749526
 21
134.439783803813
 31
0.0
  0
LINE
  5
3EB
330
3E3
100
AcDbEntity
  8
TBNUOC
 62
     8
100
AcDbLine
 10
-72.14062500007276
 20
187.5656249999083
 30
0.0
 11
-63.09441964291909
 21
151.3808035713555
 31
0.0
  0
LINE
  5
3EC
330
3E3
100
AcDbEntity
  8
TBNUOC
 62
     8
100
AcDbLine
 10
-19.23750000002474
 20
168.3281249999199
 30
0.0
 11
-19.23750000002474
 21
132.1775669889684
 31
0.0
  0
ELLIPSE
  5
3ED
330
3E3
100
AcDbEntity
  8
TBNUOC
 62
     8
100
AcDbEllipse
 10
57.32775000005495
 20
158.7093749999185
 30
0.0
 11
3.40074167577004
 21
-3.40074167577004
 31
0.0
210
0.0
220
0.0
230
-1.0
 40
0.9999999999998722
 41
2.35619449019228
 42
3.926990816987305
  0
ELLIPSE
  5
3EE
330
3E3
100
AcDbEntity
  8
TBNUOC
 62
     8
100
AcDbEllipse
 10
252.0112500002288
 20
158.7093749999185
 30
0.0
 11
-3.400741675770042
 21
-3.40074167577004
 31
0.0
210
0.0
220
0.0
230
-1.0
 40
0.9999999999998719
 41
2.35619449019228
 42
3.926990816987305
  0
LINE
  5
3EF
330
3E3
100
AcDbEntity
  8
TBNUOC
 62
     8
100
AcDbLine
 10
76.56525000007241
 20
163.5187499999192
 30
0.0
 11
76.56525000007241
 21
28.85624999998618
 31
0.0
  0
LINE
  5
3F0
330
3E3
100
AcDbEntity
  8
TBNUOC
 62
     8
100
AcDbLine
 10
71.75587500006805
 20
163.5187499999192
 30
0.0
 11
71.75587500006805
 21
28.85624999998618
 31
0.0
  0
LINE
  5
3F1
330
3E3
100
AcDbEntity
  8
TBNUOC
 62
     8
100
AcDbLine
 10
-43.28437500004656
 20
221.2312499998916
 30
0.0
 11
-43.28437500004656
 21
-28.8562499999789
 31
0.0
  0
LINE
  5
3F2
330
3E3
100
AcDbEntity
  8
TBNUOC
 62
     8
100
AcDbLine
 10
226.0406250002052
 20
28.85624999998618
 30
0.0
 11
226.0406250002052
 21
163.5187499999192
 31
0.0
  0
LINE
  5
3F3
330
3E3
100
AcDbEntity
  8
TBNUOC
  6
Continuous
 48
800.0
100
AcDbLine
 10
-72.14062500007276
 20
62.52187499997671
 30
0.0
 11
-72.14062500007276
 21
0.000000000003638
 31
0.0
  0
LINE
  5
3F4
330
3E3
100
AcDbEntity
  8
TBNUOC
 62
     8
100
AcDbLine
 10
211.6125000001921
 20
0.0
 30
0.0
 11
211.6125000001921
 21
28.85624999998618
 31
0.0
  0
LINE
  5
3F5
330
3E3
100
AcDbEntity
  8
TBNUOC
  6
Continuous
 48
800.0
100
AcDbLine
 10
-72.14062500007276
 20
0.000000000003638
 30
0.0
 11
211.6125000001921
 21
0.0
 31
0.0
  0
LINE
  5
3F6
330
3E3
100
AcDbEntity
  8
TBNUOC
 62
     8
100
AcDbLine
 10
-90.60862500008807
 20
48.09374999998181
 30
0.0
 11
-84.83737500008283
 21
48.09374999998181
 31
0.0
  0
ELLIPSE
  5
3F7
330
3E3
100
AcDbEntity
  8
TBNUOC
 62
     8
100
AcDbEllipse
 10
-84.83737500008283
 20
50.01749999997628
 30
0.0
 11
-1.360296670309253
 21
1.360296670309253
 31
0.0
210
0.0
220
0.0
230
-1.0
 40
0.9999999999994152
 41
2.356194490192052
 42
3.926990816987533
  0
LINE
  5
3F8
330
3E3
100
AcDbEntity
  8
TBNUOC
 62
     8
100
AcDbLine
 10
-82.91362500008109
 20
62.52187499997308
 30
0.0
 11
-72.14062500007276
 21
62.52187499997308
 31
0.0
  0
LINE
  5
3F9
330
3E3
100
AcDbEntity
  8
TBNUOC
 62
     8
100
AcDbLine
 10
-91.37812500009022
 20
61.17524999997477
 30
0.0
 11
-90.60862500008807
 21
61.17524999997477
 31
0.0
  0
LINE
  5
3FA
330
3E3
100
AcDbEntity
  8
TBNUOC
 62
     8
100
AcDbLine
 10
-14.42812500002037
 20
33.6656249999869
 30
0.0
 11
-0.000000000007276
 21
37.55012019229253
 31
0.0
  0
LINE
  5
3FB
330
3E3
100
AcDbEntity
  8
TBNUOC
 62
     8
100
AcDbLine
 10
-0.000000000007276
 20
37.55012019229253
 30
0.0
 11
-0.000000000007276
 21
67.33124999997016
 31
0.0
  0
LINE
  5
3FC
330
3E3
100
AcDbEntity
  8
TBNUOC
 62
     8
100
AcDbLine
 10
-63.52010081861227
 20
57.17008110467578
 30
0.0
 11
-62.52187500006403
 21
19.23749999999563
 31
0.0
  0
ELLIPSE
  5
3FD
330
3E3
100
AcDbEntity
  8
TBNUOC
 62
     8
100
AcDbEllipse
 10
-42.76444256761169
 20
19.75743243242323
 30
0.0
 11
13.97545108496706
 21
13.97545108496706
 31
0.0
210
0.0
220
0.0
230
-1.0
 40
0.9999999999999731
 41
2.382504207445371
 42
3.900681099734399
  0
ELLIPSE
  5
3FE
330
3E3
100
AcDbEntity
  8
TBNUOC
 62
     8
100
AcDbEllipse
 10
-42.79110576927632
 20
18.74423076922539
 30
0.0
 11
-13.25876128573782
 21
13.25876128573782
 31
0.0
210
0.0
220
0.0
230
-1.0
 40
0.9999999999997637
 41
2.32988477293935
 42
3.953300534240332
  0
LINE
  5
3FF
330
3E3
100
AcDbEntity
  8
TBNUOC
 62
     8
100
AcDbLine
 10
-72.14062500007276
 20
0.000000000003638
 30
0.0
 11
-72.14062500007276
 21
4.809375000000727
 31
0.0
  0
LINE
  5
400
330
3E3
100
AcDbEntity
  8
TBNUOC
 62
     8
100
AcDbLine
 10
-50.01750000005268
 20
0.000000000003638
 30
0.0
 11
-50.01750000005268
 21
-4.809374999993451
 31
0.0
  0
ELLIPSE
  5
401
330
3E3
100
AcDbEntity
  8
TBNUOC
 62
     8
100
AcDbEllipse
 10
-43.28437500003929
 20
-4.809374999997089
 30
0.0
 11
-4.76103834607808
 21
-4.761038346078078
 31
0.0
210
0.0
220
0.0
230
-1.0
 40
0.9999999999998204
 41
3.926990816987331
 42
7.068583470577124
  0
LINE
  5
402
330
3E3
100
AcDbEntity
  8
TBNUOC
 62
     8
100
AcDbLine
 10
-19.23750000002474
 20
60.19743301094059
 30
0.0
 11
-19.23750000002474
 21
24.04687499999273
 31
0.0
  0
LINE
  5
403
330
3E3
100
AcDbEntity
  8
TBNUOC
 62
     8
100
AcDbLine
 10
-20.43984375002765
 20
28.85624999998981
 30
0.0
 11
-14.42812500002037
 21
4.809375000000727
 31
0.0
  0
ELLIPSE
  5
404
330
3E3
100
AcDbEntity
  8
TBNUOC
 62
     8
100
AcDbEllipse
 10
-72.14062500007276
 20
52.90312499997526
 30
0.0
 11
-6.801483351543279
 21
6.801483351543279
 31
0.0
210
0.0
220
0.0
230
-1.0
 40
0.9999999999993063
 41
0.7853981633977951
 42
1.896573823998705
  0
LINE
  5
405
330
3E3
100
AcDbEntity
  8
TBNUOC
 62
     8
100
AcDbLine
 10
-14.42812500002037
 20
24.04687499999273
 30
0.0
 11
-14.42812500002037
 21
63.92523171210632
 31
0.0
  0
LINE
  5
406
330
3E3
100
AcDbEntity
  8
TBNUOC
 62
     8
100
AcDbLine
 10
-24.04687500002911
 20
19.23749999999563
 30
0.0
 11
-23.02851404749526
 21
57.93521619609601
 31
0.0
  0
LINE
  5
407
330
3E3
100
AcDbEntity
  8
TBNUOC
 62
     8
100
AcDbLine
 10
-72.14062500007276
 20
4.809375000000727
 30
0.0
 11
-63.09441964291909
 21
40.99419642855354
 31
0.0
  0
LINE
  5
408
330
3E3
100
AcDbEntity
  8
TBNUOC
 62
     8
100
AcDbLine
 10
-36.55125000004046
 20
-4.809374999993451
 30
0.0
 11
-36.55125000004046
 21
0.000000000003638
 31
0.0
  0
LINE
  5
409
330
3E3
100
AcDbEntity
  8
TBNUOC
 62
     8
100
AcDbLine
 10
-19.23750000002474
 20
24.04687499999273
 30
0.0
 11
-14.42812500002037
 21
24.04687499999273
 31
0.0
  0
LINE
  5
40A
330
3E3
100
AcDbEntity
  8
TBNUOC
 62
     8
100
AcDbLine
 10
-14.42812500002037
 20
4.809375000000727
 30
0.0
 11
-14.42812500002037
 21
0.000000000003638
 31
0.0
  0
LINE
  5
40B
330
3E3
100
AcDbEntity
  8
TBNUOC
 62
     8
100
AcDbLine
 10
-19.23750000002474
 20
28.85624999998981
 30
0.0
 11
-24.04687500002911
 21
28.85624999998981
 31
0.0
  0
LINE
  5
40C
330
3E3
100
AcDbEntity
  8
TBNUOC
 62
     8
100
AcDbLine
 10
76.56525000007241
 20
62.52187499996944
 30
0.0
 11
151.5915000001405
 21
62.52187499996944
 31
0.0
  0
LINE
  5
40D
330
3E3
100
AcDbEntity
  8
TBNUOC
 62
     8
100
AcDbLine
 10
76.56525000007241
 20
28.85624999998618
 30
0.0
 11
57.32775000005495
 21
28.85624999998618
 31
0.0
  0
ELLIPSE
  5
40E
330
3E3
100
AcDbEntity
  8
TBNUOC
 62
     8
100
AcDbEllipse
 10
57.32775000005495
 20
33.66562499998327
 30
0.0
 11
-3.400741675770042
 21
-3.40074167577004
 31
0.0
210
0.0
220
0.0
230
-1.0
 40
0.9999999999998719
 41
-0.7853981633975123
 42
0.7853981633975123
  0
LINE
  5
40F
330
3E3
100
AcDbEntity
  8
TBNUOC
 62
     8
100
AcDbLine
 10
156.7856250001423
 20
0.0
 30
0.0
 11
156.7856250001423
 21
-4.809374999997089
 31
0.0
  0
ELLIPSE
  5
410
330
3E3
100
AcDbEntity
  8
TBNUOC
 62
     8
100
AcDbEllipse
 10
163.5187500001484
 20
-4.809374999997089
 30
0.0
 11
-4.76103834607808
 21
-4.761038346078078
 31
0.0
210
0.0
220
0.0
230
-1.0
 40
0.9999999999998204
 41
3.926990816987331
 42
7.068583470577124
  0
LINE
  5
411
330
3E3
100
AcDbEntity
  8
TBNUOC
 62
     8
100
AcDbLine
 10
170.2518750001545
 20
-4.809374999997089
 30
0.0
 11
170.2518750001545
 21
0.0
 31
0.0
  0
LINE
  5
412
330
3E3
100
AcDbEntity
  8
TBNUOC
 62
     8
100
AcDbLine
 10
-0.000000000007276
 20
57.71249999997599
 30
0.0
 11
33.66562500002328
 21
62.52187499997308
 31
0.0
  0
ELLIPSE
  5
413
330
3E3
100
AcDbEntity
  8
TBNUOC
 62
     8
100
AcDbEllipse
 10
252.0112500002288
 20
33.66562499998327
 30
0.0
 11
3.40074167577004
 21
-3.40074167577004
 31
0.0
210
0.0
220
0.0
230
-1.0
 40
0.9999999999998722
 41
5.497787143782074
 42
7.068583470577098
  0
LINE
  5
414
330
3E3
100
AcDbEntity
  8
TBNUOC
 62
     8
100
AcDbLine
 10
256.8206250002331
 20
43.28437499997744
 30
0.0
 11
261.6300000002375
 21
48.09374999997817
 31
0.0
  0
LINE
  5
415
330
3E3
100
AcDbEntity
  8
TBNUOC
 62
     8
100
AcDbLine
 10
76.56525000007241
 20
28.85624999998618
 30
0.0
 11
252.0112500002288
 21
28.85624999998618
 31
0.0
  0
LINE
  5
416
330
3E3
100
AcDbEntity
  8
TBNUOC
 62
     8
100
AcDbLine
 10
76.56525000007241
 20
33.66562499998327
 30
0.0
 11
226.0406250002052
 21
33.66562499998327
 31
0.0
  0
LINE
  5
417
330
3E3
100
AcDbEntity
  8
TBNUOC
 62
     8
100
AcDbLine
 10
76.56525000007241
 20
43.28437499997744
 30
0.0
 11
226.0406250002052
 21
43.28437499997744
 31
0.0
  0
LINE
  5
418
330
3E3
100
AcDbEntity
  8
TBNUOC
 62
     8
100
AcDbLine
 10
151.5915000001405
 20
62.52187499996944
 30
0.0
 11
226.0406250002052
 21
62.52187499996944
 31
0.0
  0
LINE
  5
419
330
3E3
100
AcDbEntity
  8
TBNUOC
 62
     8
100
AcDbLine
 10
-14.42812500002037
 20
158.7093749999221
 30
0.0
 11
-0.000000000007276
 21
154.8248798076165
 31
0.0
  0
LINE
  5
41A
330
3E3
100
AcDbEntity
  8
TBNUOC
 62
     8
100
AcDbLine
 10
-0.000000000007276
 20
154.8248798076165
 30
0.0
 11
-0.000000000007276
 21
125.0437499999425
 31
0.0
  0
LINE
  5
41B
330
3E3
100
AcDbEntity
  8
TBNUOC
 62
     8
100
AcDbLine
 10
-82.91362500008109
 20
129.8531249999396
 30
0.0
 11
-72.14062500007276
 21
129.8531249999396
 31
0.0
  0
LINE
  5
41C
330
3E3
100
AcDbEntity
  8
TBNUOC
 62
     8
100
AcDbLine
 10
-82.91362500008109
 20
104.0348910313696
 30
0.0
 11
-82.91362500008109
 21
142.3574999999327
 31
0.0
  0
ELLIPSE
  5
41D
330
3E3
100
AcDbEntity
  8
TBNUOC
 62
     8
100
AcDbEllipse
 10
-84.83737500008283
 20
142.3574999999291
 30
0.0
 11
1.360296670309253
 21
1.360296670309253
 31
0.0
210
0.0
220
0.0
230
-1.0
 40
0.9999999999994152
 41
-0.7853981633977407
 42
0.7853981633977405
  0
LINE
  5
41E
330
3E3
100
AcDbEntity
  8
TBNUOC
 62
     8
100
AcDbLine
 10
-90.60862500008807
 20
131.1997499999379
 30
0.0
 11
-91.37812500009022
 21
131.1997499999379
 31
0.0
  0
ELLIPSE
  5
41F
330
3E3
100
AcDbEntity
  8
TBNUOC
 62
     8
100
AcDbEllipse
 10
-72.14062500007276
 20
139.4718749999301
 30
0.0
 11
6.801483351543279
 21
6.801483351543279
 31
0.0
210
0.0
220
0.0
230
-1.0
 40
0.9999999999993063
 41
1.245018829591086
 42
2.356194490191998
  0
LINE
  5
420
330
3E3
100
AcDbEntity
  8
TBNUOC
 62
     8
100
AcDbLine
 10
-84.83737500008283
 20
144.2812499999309
 30
0.0
 11
-90.60862500008807
 21
144.2812499999309
 31
0.0
  0
LINE
  5
421
330
3E3
100
AcDbEntity
  8
TBNUOC
 62
     8
100
AcDbLine
 10
-82.91362500008109
 20
120.2343749999418
 30
0.0
 11
-75.74676561285741
 21
120.2343749999418
 31
0.0
  0
LINE
  5
422
330
3E3
100
AcDbEntity
  8
TBNUOC
 62
     8
100
AcDbLine
 10
-82.91362500008109
 20
72.14062499996725
 30
0.0
 11
-75.74676561285741
 21
72.14062499996725
 31
0.0
  0
LINE
  5
423
330
3E3
100
AcDbEntity
  8
TBNUOC
 62
     8
100
AcDbLine
 10
151.5915000001405
 20
129.8531249999359
 30
0.0
 11
76.56525000007241
 21
129.8531249999359
 31
0.0
  0
LINE
  5
424
330
3E3
100
AcDbEntity
  8
TBNUOC
 62
     8
100
AcDbLine
 10
33.66562500003056
 20
91.37812499995561
 30
0.0
 11
52.51837500005058
 21
91.37812499995561
 31
0.0
  0
LINE
  5
425
330
3E3
100
AcDbEntity
  8
TBNUOC
 62
     8
100
AcDbLine
 10
33.66562500003056
 20
100.9968749999498
 30
0.0
 11
52.51837500005058
 21
100.9968749999498
 31
0.0
  0
LINE
  5
426
330
3E3
100
AcDbEntity
  8
TBNUOC
 62
     8
100
AcDbLine
 10
-0.000000000007276
 20
125.0437499999425
 30
0.0
 11
33.66562500002328
 21
120.2343749999418
 31
0.0
  0
LINE
  5
427
330
3E3
100
AcDbEntity
  8
TBNUOC
 62
     8
100
AcDbLine
 10
-0.000000000007276
 20
134.6624999999367
 30
0.0
 11
33.66562500002328
 21
129.8531249999396
 31
0.0
  0
LINE
  5
428
330
3E3
100
AcDbEntity
  8
TBNUOC
 62
     8
100
AcDbLine
 10
261.6300000002375
 20
144.2812499999272
 30
0.0
 11
256.8206250002331
 21
149.0906249999243
 31
0.0
  0
LINE
  5
429
330
3E3
100
AcDbEntity
  8
TBNUOC
 62
     8
100
AcDbLine
 10
-100.9968750000989
 20
96.18749999995635
 30
0.0
 11
296.2575000002689
 21
96.18749999995271
 31
0.0
  0
LINE
  5
42A
330
3E3
100
AcDbEntity
  8
TBNUOC
 62
     8
100
AcDbLine
 10
76.56525000007241
 20
149.0906249999243
 30
0.0
 11
226.0406250002052
 21
149.0906249999243
 31
0.0
  0
LINE
  5
42B
330
3E3
100
AcDbEntity
  8
TBNUOC
 62
     8
100
AcDbLine
 10
76.56525000007241
 20
158.7093749999185
 30
0.0
 11
226.0406250002052
 21
158.7093749999185
 31
0.0
  0
LINE
  5
42C
330
3E3
100
AcDbEntity
  8
TBNUOC
 62
     8
100
AcDbLine
 10
151.5915000001405
 20
81.75937499995781
 30
0.0
 11
226.0406250002052
 21
81.75937499995781
 31
0.0
  0
LINE
  5
42D
330
3E3
100
AcDbEntity
  8
TBNUOC
 62
     8
100
AcDbLine
 10
151.5915000001405
 20
72.14062499996362
 30
0.0
 11
226.0406250002052
 21
72.14062499996362
 31
0.0
  0
LINE
  5
42E
330
3E3
100
AcDbEntity
  8
TBNUOC
 62
     8
100
AcDbLine
 10
151.5915000001405
 20
100.9968749999498
 30
0.0
 11
226.0406250002052
 21
100.9968749999498
 31
0.0
  0
LINE
  5
42F
330
3E3
100
AcDbEntity
  8
TBNUOC
 62
     8
100
AcDbLine
 10
151.5915000001405
 20
110.6156249999439
 30
0.0
 11
226.0406250002052
 21
110.6156249999439
 31
0.0
  0
LINE
  5
430
330
3E3
100
AcDbEntity
  8
TBNUOC
 62
     8
100
AcDbLine
 10
151.5915000001405
 20
120.2343749999381
 30
0.0
 11
226.0406250002052
 21
120.2343749999381
 31
0.0
  0
LINE
  5
431
330
3E3
100
AcDbEntity
  8
TBNUOC
 62
     8
100
AcDbLine
 10
151.5915000001405
 20
129.8531249999359
 30
0.0
 11
226.0406250002052
 21
129.8531249999359
 31
0.0
  0
LINE
  5
432
330
3E3
100
AcDbEntity
  8
TBNUOC
 62
     8
100
AcDbLine
 10
151.5915000001405
 20
91.37812499995561
 30
0.0
 11
226.0406250002052
 21
91.37812499995561
 31
0.0
  0
LINE
  5
433
330
3E3
100
AcDbEntity
  8
TBNUOC
 62
     8
100
AcDbLine
 10
151.5915000001405
 20
62.52187499996944
 30
0.0
 11
151.5915000001405
 21
129.8531249999359
 31
0.0
  0
LINE
  5
434
330
3E3
100
AcDbEntity
  8
TBNUOC
 62
     8
100
AcDbLine
 10
256.8206250002331
 20
33.66562499998327
 30
0.0
 11
256.8206250002331
 21
158.7093749999185
 31
0.0
  0
LINE
  5
435
330
3E3
100
AcDbEntity
  8
TBNUOC
 62
     8
100
AcDbLine
 10
52.51837500005058
 20
33.66562499998327
 30
0.0
 11
52.51837500005058
 21
158.7093749999185
 31
0.0
  0
LINE
  5
436
330
3E3
100
AcDbEntity
  8
TBNUOC
 62
     8
100
AcDbLine
 10
-90.60862500008807
 20
144.2812499999309
 30
0.0
 11
-90.60862500008807
 21
48.09374999998181
 31
0.0
  0
LINE
  5
437
330
3E3
100
AcDbEntity
  8
TBNUOC
 62
     8
100
AcDbLine
 10
-91.37812500009022
 20
131.1997499999379
 30
0.0
 11
-91.37812500009022
 21
61.17524999997477
 31
0.0
  0
LINE
  5
438
330
3E3
100
AcDbEntity
  8
TBNUOC
 62
     8
100
AcDbLine
 10
-90.60862500008807
 20
61.17524999997477
 30
0.0
 11
-90.60862500008807
 21
131.1997499999379
 31
0.0
  0
LINE
  5
439
330
3E3
100
AcDbEntity
  8
TBNUOC
 62
     8
100
AcDbLine
 10
-0.000000000007276
 20
67.33124999997016
 30
0.0
 11
33.66562500002328
 21
72.14062499996725
 31
0.0
  0
LINE
  5
43A
330
3E3
100
AcDbEntity
  8
TBNUOC
 62
     8
100
AcDbLine
 10
261.6300000002375
 20
48.09374999997817
 30
0.0
 11
261.6300000002375
 21
144.2812499999272
 31
0.0
  0
LINE
  5
43B
330
3E3
100
AcDbEntity
  8
TBNUOC
 62
     8
100
AcDbLine
 10
76.56525000007241
 20
129.8531249999359
 30
0.0
 11
76.56525000007241
 21
62.52187499996944
 31
0.0
  0
LINE
  5
43C
330
3E3
100
AcDbEntity
  8
TBNUOC
 62
     8
100
AcDbLine
 10
-82.91362500008109
 20
50.01749999997992
 30
0.0
 11
-82.91362500008109
 21
88.34010896853943
 31
0.0
  0
ELLIPSE
  5
43D
330
3E3
100
AcDbEntity
  8
TBNUOC
 62
     8
100
AcDbEllipse
 10
-43.28437500004656
 20
96.18749999995271
 30
0.0
 11
40.39343070548953
 21
-0.6555588503558229
 31
0.0
210
0.0
220
0.0
230
-1.0
 40
0.9999999999985764
 41
-0.0162279185445493
 42
6.266957388635036
  0
ELLIPSE
  5
43E
330
3E3
100
AcDbEntity
  8
TBNUOC
 62
     8
100
AcDbEllipse
 10
-43.28437500004656
 20
96.18749999995271
 30
0.0
 11
28.85624617398166
 21
-0.0148596965342065
 31
0.0
210
0.0
220
0.0
230
-1.0
 40
0.9999999999985879
 41
-0.0005149559347093
 42
6.282670351244877
  0
LINE
  5
43F
330
3E3
100
AcDbEntity
  8
TBNUOC
  6
Continuous
 48
800.0
100
AcDbLine
 10
211.6125000001921
 20
163.5187499999192
 30
0.0
 11
211.6125000001921
 21
192.3749999999017
 31
0.0
  0
LINE
  5
440
330
3E3
100
AcDbEntity
  8
TBNUOC
  6
Continuous
 48
800.0
100
AcDbLine
 10
211.6125000001921
 20
192.3749999999017
 30
0.0
 11
-72.14062500007276
 21
192.3749999999054
 31
0.0
  0
ELLIPSE
  5
441
330
3E3
100
AcDbEntity
  8
TBNUOC
 62
     8
100
AcDbEllipse
 10
-42.76444256761169
 20
172.6175675674822
 30
0.0
 11
-13.97545108496706
 21
13.97545108496706
 31
0.0
210
0.0
220
0.0
230
-1.0
 40
0.9999999999999731
 41
5.524096861034978
 42
7.042273753324007
  0
ELLIPSE
  5
442
330
3E3
100
AcDbEntity
  8
TBNUOC
 62
     8
100
AcDbEllipse
 10
-42.79110576927632
 20
173.6307692306836
 30
0.0
 11
13.25876128573782
 21
13.25876128573782
 31
0.0
210
0.0
220
0.0
230
-1.0
 40
0.999999999999764
 41
-0.8117078806505391
 42
0.8117078806504419
  0
LINE
  5
443
330
3E3
100
AcDbEntity
  8
TBNUOC
 62
     8
100
AcDbLine
 10
-72.14062500007276
 20
192.3749999999054
 30
0.0
 11
-72.14062500007276
 21
187.5656249999083
 31
0.0
  0
LINE
  5
444
330
3E3
100
AcDbEntity
  8
TBNUOC
 62
     8
100
AcDbLine
 10
-14.42812500002037
 20
168.3281249999199
 30
0.0
 11
-19.23750000002474
 21
168.3281249999199
 31
0.0
  0
LINE
  5
445
330
3E3
100
AcDbEntity
  8
TBNUOC
 62
     8
100
AcDbLine
 10
-20.43984375002765
 20
163.5187499999229
 30
0.0
 11
-14.42812500002037
 21
187.5656249999083
 31
0.0
  0
LINE
  5
446
330
3E3
100
AcDbEntity
  8
TBNUOC
 62
     8
100
AcDbLine
 10
-50.01750000005268
 20
192.3749999999054
 30
0.0
 11
-50.01750000005268
 21
197.1843749999025
 31
0.0
  0
ELLIPSE
  5
447
330
3E3
100
AcDbEntity
  8
TBNUOC
 62
     8
100
AcDbEllipse
 10
-43.28437500003929
 20
197.1843749998988
 30
0.0
 11
-4.76103834607808
 21
-4.761038346078078
 31
0.0
210
0.0
220
0.0
230
-1.0
 40
0.9999999999998204
 41
0.785398163397538
 42
3.926990816987331
  0
LINE
  5
448
330
3E3
100
AcDbEntity
  8
TBNUOC
 62
     8
100
AcDbLine
 10
-14.42812500002037
 20
187.5656249999083
 30
0.0
 11
-14.42812500002037
 21
192.3749999999054
 31
0.0
  0
LINE
  5
449
330
3E3
100
AcDbEntity
  8
TBNUOC
 62
     8
100
AcDbLine
 10
-36.55125000004046
 20
197.1843749999025
 30
0.0
 11
-36.55125000004046
 21
192.3749999999054
 31
0.0
  0
LINE
  5
44A
330
3E3
100
AcDbEntity
  8
TBNUOC
 62
     8
100
AcDbLine
 10
-19.23750000002474
 20
163.5187499999229
 30
0.0
 11
-24.04687500002911
 21
163.5187499999229
 31
0.0
  0
LINE
  5
44B
330
3E3
100
AcDbEntity
  8
TBNUOC
 62
     8
100
AcDbLine
 10
156.7856250001423
 20
192.3749999999017
 30
0.0
 11
156.7856250001423
 21
197.1843749998988
 31
0.0
  0
ELLIPSE
  5
44C
330
3E3
100
AcDbEntity
  8
TBNUOC
 62
     8
100
AcDbEllipse
 10
163.5187500001484
 20
197.1843749998988
 30
0.0
 11
-4.76103834607808
 21
-4.761038346078078
 31
0.0
210
0.0
220
0.0
230
-1.0
 40
0.9999999999998204
 41
0.785398163397538
 42
3.926990816987331
  0
LINE
  5
44D
330
3E3
100
AcDbEntity
  8
TBNUOC
 62
     8
100
AcDbLine
 10
57.32775000005495
 20
163.5187499999192
 30
0.0
 11
76.56525000007241
 21
163.5187499999192
 31
0.0
  0
LINE
  5
44E
330
3E3
100
AcDbEntity
  8
TBNUOC
 62
     8
100
AcDbLine
 10
170.2518750001545
 20
197.1843749998988
 30
0.0
 11
170.2518750001545
 21
192.3749999999017
 31
0.0
  0
LINE
  5
44F
330
3E3
100
AcDbEntity
  8
TBNUOC
 62
     8
100
AcDbLine
 10
252.0112500002288
 20
163.5187499999192
 30
0.0
 11
76.56525000007241
 21
163.5187499999192
 31
0.0
  0
LINE
  5
450
330
3E3
100
AcDbEntity
  8
TBNUOC
 62
     8
100
AcDbLine
 10
33.66562500002328
 20
129.8531249999396
 30
0.0
 11
33.66562500002328
 21
62.52187499997308
 31
0.0
  0
ENDBLK
  5
451
330
3E3
100
AcDbEntity
  8
0
100
AcDbBlockEnd
  0
BLOCK
  5
590
330
586
100
AcDbEntity
  8
0
 48
5.0
100
AcDbBlockBegin
  2
*D25
 70
     1
 10
0.0
 20
0.0
 30
0.0
  3
*D25
  1

  0
LINE
  5
587
330
586
100
AcDbEntity
  8
DIM
 62
     9
 48
5.0
370
    -2
100
AcDbLine
 10
1322280.010127017
 20
252833.504337628
 30
0.0
 11
1322280.010127017
 21
252152.7726418804
 31
0.0
  0
LINE
  5
588
330
586
100
AcDbEntity
  8
DIM
 62
     9
 48
5.0
370
    -2
100
AcDbLine
 10
1324290.010127017
 20
252833.504337628
 30
0.0
 11
1324290.010127017
 21
252152.7726418804
 31
0.0
  0
LINE
  5
589
330
586
100
AcDbEntity
  8
DIM
 62
     9
 48
5.0
370
    -2
100
AcDbLine
 10
1322340.010127017
 20
252352.7726418804
 30
0.0
 11
1324230.010127017
 21
252352.7726418804
 31
0.0
  0
INSERT
  5
58A
330
586
100
AcDbEntity
  8
DIM
 62
     9
 48
5.0
370
    -2
100
AcDbBlockReference
  2
DOT
 10
1322280.010127017
 20
252352.7726418804
 30
0.0
 41
60.0
 42
60.0
 43
60.0
 50
180.0
  0
INSERT
  5
58B
330
586
100
AcDbEntity
  8
DIM
 62
     9
 48
5.0
370
    -2
100
AcDbBlockReference
  2
DOT
 10
1324290.010127017
 20
252352.7726418804
 30
0.0
 41
60.0
 42
60.0
 43
60.0
  0
MTEXT
  5
58C
330
586
100
AcDbEntity
  8
DIM
 62
    30
 48
5.0
100
AcDbMText
 10
1323285.010127017
 20
252545.1193085471
 30
0.0
 40
220.0
 41
0.0
 71
     5
 72
     1
  1
\A1;2010
  7
AVANH
 73
     1
 44
1.0
  0
POINT
  5
58D
330
586
100
AcDbEntity
  8
DEFPOINTS
 62
     0
 48
5.0
100
AcDbPoint
 10
1322280.010127017
 20
252833.504337628
 30
0.0
  0
POINT
  5
58E
330
586
100
AcDbEntity
  8
DEFPOINTS
 62
     0
 48
5.0
100
AcDbPoint
 10
1324290.010127017
 20
252833.504337628
 30
0.0
  0
POINT
  5
58F
330
586
100
AcDbEntity
  8
DEFPOINTS
 62
     0
 48
5.0
100
AcDbPoint
 10
1324290.010127017
 20
252352.7726418804
 30
0.0
  0
ENDBLK
  5
591
330
586
100
AcDbEntity
  8
0
 48
5.0
100
AcDbBlockEnd
  0
BLOCK
  5
59C
330
592
100
AcDbEntity
  8
0
 48
5.0
100
AcDbBlockBegin
  2
*D26
 70
     1
 10
0.0
 20
0.0
 30
0.0
  3
*D26
  1

  0
LINE
  5
593
330
592
100
AcDbEntity
  8
DIM
 62
     9
 48
5.0
370
    -2
100
AcDbLine
 10
1324290.010127017
 20
252833.504337628
 30
0.0
 11
1324290.010127017
 21
252152.7726418804
 31
0.0
  0
LINE
  5
594
330
592
100
AcDbEntity
  8
DIM
 62
     9
 48
5.0
370
    -2
100
AcDbLine
 10
1326600.010127017
 20
252833.504337628
 30
0.0
 11
1326600.010127017
 21
252152.7726418804
 31
0.0
  0
LINE
  5
595
330
592
100
AcDbEntity
  8
DIM
 62
     9
 48
5.0
370
    -2
100
AcDbLine
 10
1324350.010127017
 20
252352.7726418804
 30
0.0
 11
1326540.010127017
 21
252352.7726418804
 31
0.0
  0
INSERT
  5
596
330
592
100
AcDbEntity
  8
DIM
 62
     9
 48
5.0
370
    -2
100
AcDbBlockReference
  2
DOT
 10
1324290.010127017
 20
252352.7726418804
 30
0.0
 41
60.0
 42
60.0
 43
60.0
 50
180.0
  0
INSERT
  5
597
330
592
100
AcDbEntity
  8
DIM
 62
     9
 48
5.0
370
    -2
100
AcDbBlockReference
  2
DOT
 10
1326600.010127017
 20
252352.7726418804
 30
0.0
 41
60.0
 42
60.0
 43
60.0
  0
MTEXT
  5
598
330
592
100
AcDbEntity
  8
DIM
 62
    30
 48
5.0
100
AcDbMText
 10
1325445.010127017
 20
252545.1193085471
 30
0.0
 40
220.0
 41
0.0
 71
     5
 72
     1
  1
\A1;2310
  7
AVANH
 73
     1
 44
1.0
  0
POINT
  5
599
330
592
100
AcDbEntity
  8
DEFPOINTS
 62
     0
 48
5.0
100
AcDbPoint
 10
1324290.010127017
 20
252833.504337628
 30
0.0
  0
POINT
  5
59A
330
592
100
AcDbEntity
  8
DEFPOINTS
 62
     0
 48
5.0
100
AcDbPoint
 10
1326600.010127017
 20
252833.504337628
 30
0.0
  0
POINT
  5
59B
330
592
100
AcDbEntity
  8
DEFPOINTS
 62
     0
 48
5.0
100
AcDbPoint
 10
1326600.010127017
 20
252352.7726418804
 30
0.0
  0
ENDBLK
  5
59D
330
592
100
AcDbEntity
  8
0
 48
5.0
100
AcDbBlockEnd
  0
BLOCK
  5
5A8
330
59E
100
AcDbEntity
  8
0
 48
5.0
100
AcDbBlockBegin
  2
*D27
 70
     1
 10
0.0
 20
0.0
 30
0.0
  3
*D27
  1

  0
LINE
  5
59F
330
59E
100
AcDbEntity
  8
DIM
 62
     9
 48
5.0
370
    -2
100
AcDbLine
 10
1326600.010127017
 20
252833.504337628
 30
0.0
 11
1326600.010127017
 21
252152.7726418804
 31
0.0
  0
LINE
  5
5A0
330
59E
100
AcDbEntity
  8
DIM
 62
     9
 48
5.0
370
    -2
100
AcDbLine
 10
1329187.510127017
 20
252833.504337628
 30
0.0
 11
1329187.510127017
 21
252152.7726418804
 31
0.0
  0
LINE
  5
5A1
330
59E
100
AcDbEntity
  8
DIM
 62
     9
 48
5.0
370
    -2
100
AcDbLine
 10
1326660.010127017
 20
252352.7726418804
 30
0.0
 11
1329127.510127017
 21
252352.7726418804
 31
0.0
  0
INSERT
  5
5A2
330
59E
100
AcDbEntity
  8
DIM
 62
     9
 48
5.0
370
    -2
100
AcDbBlockReference
  2
DOT
 10
1326600.010127017
 20
252352.7726418804
 30
0.0
 41
60.0
 42
60.0
 43
60.0
 50
180.0
  0
INSERT
  5
5A3
330
59E
100
AcDbEntity
  8
DIM
 62
     9
 48
5.0
370
    -2
100
AcDbBlockReference
  2
DOT
 10
1329187.510127017
 20
252352.7726418804
 30
0.0
 41
60.0
 42
60.0
 43
60.0
  0
MTEXT
  5
5A4
330
59E
100
AcDbEntity
  8
DIM
 62
    30
 48
5.0
100
AcDbMText
 10
1327893.760127017
 20
252545.1193085471
 30
0.0
 40
220.0
 41
0.0
 71
     5
 72
     1
  1
\A1;2588
  7
AVANH
 73
     1
 44
1.0
  0
POINT
  5
5A5
330
59E
100
AcDbEntity
  8
DEFPOINTS
 62
     0
 48
5.0
100
AcDbPoint
 10
1326600.010127017
 20
252833.504337628
 30
0.0
  0
POINT
  5
5A6
330
59E
100
AcDbEntity
  8
DEFPOINTS
 62
     0
 48
5.0
100
AcDbPoint
 10
1329187.510127017
 20
252833.504337628
 30
0.0
  0
POINT
  5
5A7
330
59E
100
AcDbEntity
  8
DEFPOINTS
 62
     0
 48
5.0
100
AcDbPoint
 10
1329187.510127017
 20
252352.7726418804
 30
0.0
  0
ENDBLK
  5
5A9
330
59E
100
AcDbEntity
  8
0
 48
5.0
100
AcDbBlockEnd
  0
BLOCK
  5
5B4
330
5AA
100
AcDbEntity
  8
0
 48
5.0
100
AcDbBlockBegin
  2
*D28
 70
     1
 10
0.0
 20
0.0
 30
0.0
  3
*D28
  1

  0
LINE
  5
5AB
330
5AA
100
AcDbEntity
  8
DIM
 62
     9
 48
5.0
370
    -2
100
AcDbLine
 10
1329187.510127017
 20
252833.504337628
 30
0.0
 11
1329187.510127017
 21
252152.7726418804
 31
0.0
  0
LINE
  5
5AC
330
5AA
100
AcDbEntity
  8
DIM
 62
     9
 48
5.0
370
    -2
100
AcDbLine
 10
1332060.010127017
 20
252833.504337628
 30
0.0
 11
1332060.010127017
 21
252152.7726418804
 31
0.0
  0
LINE
  5
5AD
330
5AA
100
AcDbEntity
  8
DIM
 62
     9
 48
5.0
370
    -2
100
AcDbLine
 10
1329247.510127017
 20
252352.7726418804
 30
0.0
 11
1332000.010127017
 21
252352.7726418804
 31
0.0
  0
INSERT
  5
5AE
330
5AA
100
AcDbEntity
  8
DIM
 62
     9
 48
5.0
370
    -2
100
AcDbBlockReference
  2
DOT
 10
1329187.510127017
 20
252352.7726418804
 30
0.0
 41
60.0
 42
60.0
 43
60.0
 50
180.0
  0
INSERT
  5
5AF
330
5AA
100
AcDbEntity
  8
DIM
 62
     9
 48
5.0
370
    -2
100
AcDbBlockReference
  2
DOT
 10
1332060.010127017
 20
252352.7726418804
 30
0.0
 41
60.0
 42
60.0
 43
60.0
  0
MTEXT
  5
5B0
330
5AA
100
AcDbEntity
  8
DIM
 62
    30
 48
5.0
100
AcDbMText
 10
1330623.760127017
 20
252545.1193085471
 30
0.0
 40
220.0
 41
0.0
 71
     5
 72
     1
  1
\A1;2873
  7
AVANH
 73
     1
 44
1.0
  0
POINT
  5
5B1
330
5AA
100
AcDbEntity
  8
DEFPOINTS
 62
     0
 48
5.0
100
AcDbPoint
 10
1329187.510127017
 20
252833.504337628
 30
0.0
  0
POINT
  5
5B2
330
5AA
100
AcDbEntity
  8
DEFPOINTS
 62
     0
 48
5.0
100
AcDbPoint
 10
1332060.010127017
 20
252833.504337628
 30
0.0
  0
POINT
  5
5B3
330
5AA
100
AcDbEntity
  8
DEFPOINTS
 62
     0
 48
5.0
100
AcDbPoint
 10
1332060.010127017
 20
252352.7726418804
 30
0.0
  0
ENDBLK
  5
5B5
330
5AA
100
AcDbEntity
  8
0
 48
5.0
100
AcDbBlockEnd
  0
BLOCK
  5
5C0
330
5B6
100
AcDbEntity
  8
0
 48
5.0
100
AcDbBlockBegin
  2
*D29
 70
     1
 10
0.0
 20
0.0
 30
0.0
  3
*D29
  1

  0
LINE
  5
5B7
330
5B6
100
AcDbEntity
  8
DIM
 62
     9
 48
5.0
370
    -2
100
AcDbLine
 10
1332060.010127017
 20
252833.504337628
 30
0.0
 11
1332060.010127017
 21
252152.7726418804
 31
0.0
  0
LINE
  5
5B8
330
5B6
100
AcDbEntity
  8
DIM
 62
     9
 48
5.0
370
    -2
100
AcDbLine
 10
1334647.510127017
 20
252833.504337628
 30
0.0
 11
1334647.510127017
 21
252152.7726418804
 31
0.0
  0
LINE
  5
5B9
330
5B6
100
AcDbEntity
  8
DIM
 62
     9
 48
5.0
370
    -2
100
AcDbLine
 10
1332120.010127017
 20
252352.7726418804
 30
0.0
 11
1334587.510127017
 21
252352.7726418804
 31
0.0
  0
INSERT
  5
5BA
330
5B6
100
AcDbEntity
  8
DIM
 62
     9
 48
5.0
370
    -2
100
AcDbBlockReference
  2
DOT
 10
1332060.010127017
 20
252352.7726418804
 30
0.0
 41
60.0
 42
60.0
 43
60.0
 50
180.0
  0
INSERT
  5
5BB
330
5B6
100
AcDbEntity
  8
DIM
 62
     9
 48
5.0
370
    -2
100
AcDbBlockReference
  2
DOT
 10
1334647.510127017
 20
252352.7726418804
 30
0.0
 41
60.0
 42
60.0
 43
60.0
  0
MTEXT
  5
5BC
330
5B6
100
AcDbEntity
  8
DIM
 62
    30
 48
5.0
100
AcDbMText
 10
1333353.760127017
 20
252545.1193085471
 30
0.0
 40
220.0
 41
0.0
 71
     5
 72
     1
  1
\A1;2588
  7
AVANH
 73
     1
 44
1.0
  0
POINT
  5
5BD
330
5B6
100
AcDbEntity
  8
DEFPOINTS
 62
     0
 48
5.0
100
AcDbPoint
 10
1332060.010127017
 20
252833.504337628
 30
0.0
  0
POINT
  5
5BE
330
5B6
100
AcDbEntity
  8
DEFPOINTS
 62
     0
 48
5.0
100
AcDbPoint
 10
1334647.510127017
 20
252833.504337628
 30
0.0
  0
POINT
  5
5BF
330
5B6
100
AcDbEntity
  8
DEFPOINTS
 62
     0
 48
5.0
100
AcDbPoint
 10
1334647.510127017
 20
252352.7726418804
 30
0.0
  0
ENDBLK
  5
5C1
330
5B6
100
AcDbEntity
  8
0
 48
5.0
100
AcDbBlockEnd
  0
BLOCK
  5
5CC
330
5C2
100
AcDbEntity
  8
0
 48
5.0
100
AcDbBlockBegin
  2
*D30
 70
     1
 10
0.0
 20
0.0
 30
0.0
  3
*D30
  1

  0
LINE
  5
5C3
330
5C2
100
AcDbEntity
  8
DIM
 62
     9
 48
5.0
370
    -2
100
AcDbLine
 10
1334647.510127017
 20
252833.504337628
 30
0.0
 11
1334647.510127017
 21
252152.7726418804
 31
0.0
  0
LINE
  5
5C4
330
5C2
100
AcDbEntity
  8
DIM
 62
     9
 48
5.0
370
    -2
100
AcDbLine
 10
1336957.510127017
 20
252833.504337628
 30
0.0
 11
1336957.510127017
 21
252152.7726418804
 31
0.0
  0
LINE
  5
5C5
330
5C2
100
AcDbEntity
  8
DIM
 62
     9
 48
5.0
370
    -2
100
AcDbLine
 10
1334707.510127017
 20
252352.7726418804
 30
0.0
 11
1336897.510127017
 21
252352.7726418804
 31
0.0
  0
INSERT
  5
5C6
330
5C2
100
AcDbEntity
  8
DIM
 62
     9
 48
5.0
370
    -2
100
AcDbBlockReference
  2
DOT
 10
1334647.510127017
 20
252352.7726418804
 30
0.0
 41
60.0
 42
60.0
 43
60.0
 50
180.0
  0
INSERT
  5
5C7
330
5C2
100
AcDbEntity
  8
DIM
 62
     9
 48
5.0
370
    -2
100
AcDbBlockReference
  2
DOT
 10
1336957.510127017
 20
252352.7726418804
 30
0.0
 41
60.0
 42
60.0
 43
60.0
  0
MTEXT
  5
5C8
330
5C2
100
AcDbEntity
  8
DIM
 62
    30
 48
5.0
100
AcDbMText
 10
1335802.510127017
 20
252545.1193085471
 30
0.0
 40
220.0
 41
0.0
 71
     5
 72
     1
  1
\A1;2310
  7
AVANH
 73
     1
 44
1.0
  0
POINT
  5
5C9
330
5C2
100
AcDbEntity
  8
DEFPOINTS
 62
     0
 48
5.0
100
AcDbPoint
 10
1334647.510127017
 20
252833.504337628
 30
0.0
  0
POINT
  5
5CA
330
5C2
100
AcDbEntity
  8
DEFPOINTS
 62
     0
 48
5.0
100
AcDbPoint
 10
1336957.510127017
 20
252833.504337628
 30
0.0
  0
POINT
  5
5CB
330
5C2
100
AcDbEntity
  8
DEFPOINTS
 62
     0
 48
5.0
100
AcDbPoint
 10
1336957.510127017
 20
252352.7726418804
 30
0.0
  0
ENDBLK
  5
5CD
330
5C2
100
AcDbEntity
  8
0
 48
5.0
100
AcDbBlockEnd
  0
BLOCK
  5
5D8
330
5CE
100
AcDbEntity
  8
0
 48
5.0
100
AcDbBlockBegin
  2
*D31
 70
     1
 10
0.0
 20
0.0
 30
0.0
  3
*D31
  1

  0
LINE
  5
5CF
330
5CE
100
AcDbEntity
  8
DIM
 62
     9
 48
5.0
370
    -2
100
AcDbLine
 10
1336957.510127017
 20
252833.504337628
 30
0.0
 11
1336957.510127017
 21
252152.7726418804
 31
0.0
  0
LINE
  5
5D0
330
5CE
100
AcDbEntity
  8
DIM
 62
     9
 48
5.0
370
    -2
100
AcDbLine
 10
1338967.510127017
 20
252833.504337628
 30
0.0
 11
1338967.510127017
 21
252152.7726418804
 31
0.0
  0
LINE
  5
5D1
330
5CE
100
AcDbEntity
  8
DIM
 62
     9
 48
5.0
370
    -2
100
AcDbLine
 10
1337017.510127017
 20
252352.7726418804
 30
0.0
 11
1338907.510127017
 21
252352.7726418804
 31
0.0
  0
INSERT
  5
5D2
330
5CE
100
AcDbEntity
  8
DIM
 62
     9
 48
5.0
370
    -2
100
AcDbBlockReference
  2
DOT
 10
1336957.510127017
 20
252352.7726418804
 30
0.0
 41
60.0
 42
60.0
 43
60.0
 50
180.0
  0
INSERT
  5
5D3
330
5CE
100
AcDbEntity
  8
DIM
 62
     9
 48
5.0
370
    -2
100
AcDbBlockReference
  2
DOT
 10
1338967.510127017
 20
252352.7726418804
 30
0.0
 41
60.0
 42
60.0
 43
60.0
  0
MTEXT
  5
5D4
330
5CE
100
AcDbEntity
  8
DIM
 62
    30
 48
5.0
100
AcDbMText
 10
1337962.510127017
 20
252545.1193085471
 30
0.0
 40
220.0
 41
0.0
 71
     5
 72
     1
  1
\A1;2010
  7
AVANH
 73
     1
 44
1.0
  0
POINT
  5
5D5
330
5CE
100
AcDbEntity
  8
DEFPOINTS
 62
     0
 48
5.0
100
AcDbPoint
 10
1336957.510127017
 20
252833.504337628
 30
0.0
  0
POINT
  5
5D6
330
5CE
100
AcDbEntity
  8
DEFPOINTS
 62
     0
 48
5.0
100
AcDbPoint
 10
1338967.510127017
 20
252833.504337628
 30
0.0
  0
POINT
  5
5D7
330
5CE
100
AcDbEntity
  8
DEFPOINTS
 62
     0
 48
5.0
100
AcDbPoint
 10
1338967.510127017
 20
252352.7726418804
 30
0.0
  0
ENDBLK
  5
5D9
330
5CE
100
AcDbEntity
  8
0
 48
5.0
100
AcDbBlockEnd
  0
BLOCK
  5
5E4
330
5DA
100
AcDbEntity
  8
0
 48
5.0
100
AcDbBlockBegin
  2
*D32
 70
     1
 10
0.0
 20
0.0
 30
0.0
  3
*D32
  1

  0
LINE
  5
5DB
330
5DA
100
AcDbEntity
  8
DIM
 62
     9
 48
5.0
370
    -2
100
AcDbLine
 10
1319352.925516012
 20
252833.504337628
 30
0.0
 11
1319352.925516012
 21
251688.7327163577
 31
0.0
  0
LINE
  5
5DC
330
5DA
100
AcDbEntity
  8
DIM
 62
     9
 48
5.0
370
    -2
100
AcDbLine
 10
1341167.510127017
 20
252833.504337628
 30
0.0
 11
1341167.510127017
 21
251688.7327163577
 31
0.0
  0
LINE
  5
5DD
330
5DA
100
AcDbEntity
  8
DIM
 62
     9
 48
5.0
370
    -2
100
AcDbLine
 10
1319412.925516012
 20
251888.7327163576
 30
0.0
 11
1341107.510127017
 21
251888.7327163576
 31
0.0
  0
INSERT
  5
5DE
330
5DA
100
AcDbEntity
  8
DIM
 62
     9
 48
5.0
370
    -2
100
AcDbBlockReference
  2
DOT
 10
1319352.925516012
 20
251888.7327163576
 30
0.0
 41
60.0
 42
60.0
 43
60.0
 50
180.0
  0
INSERT
  5
5DF
330
5DA
100
AcDbEntity
  8
DIM
 62
     9
 48
5.0
370
    -2
100
AcDbBlockReference
  2
DOT
 10
1341167.510127017
 20
251888.7327163576
 30
0.0
 41
60.0
 42
60.0
 43
60.0
  0
MTEXT
  5
5E0
330
5DA
100
AcDbEntity
  8
DIM
 62
    30
 48
5.0
100
AcDbMText
 10
1330260.217821515
 20
252081.0793830243
 30
0.0
 40
220.0
 41
0.0
 71
     5
 72
     1
  1
\A1;21815
  7
AVANH
 73
     1
 44
1.0
  0
POINT
  5
5E1
330
5DA
100
AcDbEntity
  8
DEFPOINTS
 62
     0
 48
5.0
100
AcDbPoint
 10
1319352.925516012
 20
252833.504337628
 30
0.0
  0
POINT
  5
5E2
330
5DA
100
AcDbEntity
  8
DEFPOINTS
 62
     0
 48
5.0
100
AcDbPoint
 10
1341167.510127017
 20
252833.504337628
 30
0.0
  0
POINT
  5
5E3
330
5DA
100
AcDbEntity
  8
DEFPOINTS
 62
     0
 48
5.0
100
AcDbPoint
 10
1341167.510127017
 20
251888.7327163576
 30
0.0
  0
ENDBLK
  5
5E5
330
5DA
100
AcDbEntity
  8
0
 48
5.0
100
AcDbBlockEnd
  0
BLOCK
  5
5F0
330
5E6
100
AcDbEntity
  8
0
 48
5.0
100
AcDbBlockBegin
  2
*D33
 70
     1
 10
0.0
 20
0.0
 30
0.0
  3
*D33
  1

  0
LINE
  5
5E7
330
5E6
100
AcDbEntity
  8
DIM
 62
     9
 48
5.0
370
    -2
100
AcDbLine
 10
1338967.510127017
 20
252833.504337628
 30
0.0
 11
1338967.510127017
 21
252152.7726418804
 31
0.0
  0
LINE
  5
5E8
330
5E6
100
AcDbEntity
  8
DIM
 62
     9
 48
5.0
370
    -2
100
AcDbLine
 10
1341167.510127017
 20
252833.504337628
 30
0.0
 11
1341167.510127017
 21
252152.7726418804
 31
0.0
  0
LINE
  5
5E9
330
5E6
100
AcDbEntity
  8
DIM
 62
     9
 48
5.0
370
    -2
100
AcDbLine
 10
1339027.510127017
 20
252352.7726418804
 30
0.0
 11
1341107.510127017
 21
252352.7726418804
 31
0.0
  0
INSERT
  5
5EA
330
5E6
100
AcDbEntity
  8
DIM
 62
     9
 48
5.0
370
    -2
100
AcDbBlockReference
  2
DOT
 10
1338967.510127017
 20
252352.7726418804
 30
0.0
 41
60.0
 42
60.0
 43
60.0
 50
180.0
  0
INSERT
  5
5EB
330
5E6
100
AcDbEntity
  8
DIM
 62
     9
 48
5.0
370
    -2
100
AcDbBlockReference
  2
DOT
 10
1341167.510127017
 20
252352.7726418804
 30
0.0
 41
60.0
 42
60.0
 43
60.0
  0
MTEXT
  5
5EC
330
5E6
100
AcDbEntity
  8
DIM
 62
    30
 48
5.0
100
AcDbMText
 10
1340067.510127017
 20
252545.1193085471
 30
0.0
 40
220.0
 41
0.0
 71
     5
 72
     1
  1
\A1;2200
  7
AVANH
 73
     1
 44
1.0
  0
POINT
  5
5ED
330
5E6
100
AcDbEntity
  8
DEFPOINTS
 62
     0
 48
5.0
100
AcDbPoint
 10
1338967.510127017
 20
252833.504337628
 30
0.0
  0
POINT
  5
5EE
330
5E6
100
AcDbEntity
  8
DEFPOINTS
 62
     0
 48
5.0
100
AcDbPoint
 10
1341167.510127017
 20
252833.504337628
 30
0.0
  0
POINT
  5
5EF
330
5E6
100
AcDbEntity
  8
DEFPOINTS
 62
     0
 48
5.0
100
AcDbPoint
 10
1341167.510127017
 20
252352.7726418804
 30
0.0
  0
ENDBLK
  5
5F1
330
5E6
100
AcDbEntity
  8
0
 48
5.0
100
AcDbBlockEnd
  0
BLOCK
  5
5FC
330
5F2
100
AcDbEntity
  8
0
 48
5.0
100
AcDbBlockBegin
  2
*D34
 70
     1
 10
0.0
 20
0.0
 30
0.0
  3
*D34
  1

  0
LINE
  5
5F3
330
5F2
100
AcDbEntity
  8
DIM
 62
     9
 48
5.0
370
    -2
100
AcDbLine
 10
1322280.010127017
 20
252833.504337628
 30
0.0
 11
1322280.010127017
 21
252152.7726418804
 31
0.0
  0
LINE
  5
5F4
330
5F2
100
AcDbEntity
  8
DIM
 62
     9
 48
5.0
370
    -2
100
AcDbLine
 10
1319352.925516012
 20
252833.504337628
 30
0.0
 11
1319352.925516012
 21
252152.7726418804
 31
0.0
  0
LINE
  5
5F5
330
5F2
100
AcDbEntity
  8
DIM
 62
     9
 48
5.0
370
    -2
100
AcDbLine
 10
1322220.010127017
 20
252352.7726418804
 30
0.0
 11
1319412.925516012
 21
252352.7726418804
 31
0.0
  0
INSERT
  5
5F6
330
5F2
100
AcDbEntity
  8
DIM
 62
     9
 48
5.0
370
    -2
100
AcDbBlockReference
  2
DOT
 10
1322280.010127017
 20
252352.7726418804
 30
0.0
 41
60.0
 42
60.0
 43
60.0
  0
INSERT
  5
5F7
330
5F2
100
AcDbEntity
  8
DIM
 62
     9
 48
5.0
370
    -2
100
AcDbBlockReference
  2
DOT
 10
1319352.925516012
 20
252352.7726418804
 30
0.0
 41
60.0
 42
60.0
 43
60.0
 50
180.0
  0
MTEXT
  5
5F8
330
5F2
100
AcDbEntity
  8
DIM
 62
    30
 48
5.0
100
AcDbMText
 10
1320816.467821514
 20
252545.1193085471
 30
0.0
 40
220.0
 41
0.0
 71
     5
 72
     1
  1
\A1;2927
  7
AVANH
 73
     1
 44
1.0
  0
POINT
  5
5F9
330
5F2
100
AcDbEntity
  8
DEFPOINTS
 62
     0
 48
5.0
100
AcDbPoint
 10
1322280.010127017
 20
252833.504337628
 30
0.0
  0
POINT
  5
5FA
330
5F2
100
AcDbEntity
  8
DEFPOINTS
 62
     0
 48
5.0
100
AcDbPoint
 10
1319352.925516012
 20
252833.504337628
 30
0.0
  0
POINT
  5
5FB
330
5F2
100
AcDbEntity
  8
DEFPOINTS
 62
     0
 48
5.0
100
AcDbPoint
 10
1319352.925516012
 20
252352.7726418804
 30
0.0
  0
ENDBLK
  5
5FD
330
5F2
100
AcDbEntity
  8
0
 48
5.0
100
AcDbBlockEnd
  0
BLOCK
  5
608
330
5FE
100
AcDbEntity
  8
0
 48
5.0
100
AcDbBlockBegin
  2
*D35
 70
     1
 10
0.0
 20
0.0
 30
0.0
  3
*D35
  1

  0
LINE
  5
5FF
330
5FE
100
AcDbEntity
  8
DIM
 62
     9
 48
5.0
370
    -2
100
AcDbLine
 10
1343652.013863444
 20
256390.663289868
 30
0.0
 11
1344334.060880499
 21
256390.663289868
 31
0.0
  0
LINE
  5
600
330
5FE
100
AcDbEntity
  8
DIM
 62
     9
 48
5.0
370
    -2
100
AcDbLine
 10
1343652.013863444
 20
258400.6632895709
 30
0.0
 11
1344334.060880499
 21
258400.6632895709
 31
0.0
  0
LINE
  5
601
330
5FE
100
AcDbEntity
  8
DIM
 62
     9
 48
5.0
370
    -2
100
AcDbLine
 10
1344134.060880499
 20
256450.6632898681
 30
0.0
 11
1344134.060880499
 21
258340.6632895709
 31
0.0
  0
MTEXT
  5
602
330
5FE
100
AcDbEntity
  8
DIM
 62
    30
 48
5.0
100
AcDbMText
 10
1343941.714213833
 20
257884.5783893307
 30
0.0
 40
220.0
 41
0.0
 71
     5
 72
     1
  1
\A1;2010
  7
AVANH
 11
0.0000000000000001
 21
1.0
 31
0.0
 73
     1
 44
1.0
  0
INSERT
  5
603
330
5FE
100
AcDbEntity
  8
DIM
 62
     9
 48
5.0
370
    -2
100
AcDbBlockReference
  2
DOT
 10
1344134.060880499
 20
256390.663289868
 30
0.0
 41
60.0
 42
60.0
 43
60.0
 50
270.0
  0
INSERT
  5
604
330
5FE
100
AcDbEntity
  8
DIM
 62
     9
 48
5.0
370
    -2
100
AcDbBlockReference
  2
DOT
 10
1344134.060880499
 20
258400.6632895709
 30
0.0
 41
60.0
 42
60.0
 43
60.0
 50
90.0
  0
POINT
  5
605
330
5FE
100
AcDbEntity
  8
DEFPOINTS
 62
     0
 48
5.0
100
AcDbPoint
 10
1343652.013863444
 20
256390.663289868
 30
0.0
  0
POINT
  5
606
330
5FE
100
AcDbEntity
  8
DEFPOINTS
 62
     0
 48
5.0
100
AcDbPoint
 10
1343652.013863444
 20
258400.6632895709
 30
0.0
  0
POINT
  5
607
330
5FE
100
AcDbEntity
  8
DEFPOINTS
 62
     0
 48
5.0
100
AcDbPoint
 10
1344134.060880499
 20
258400.6632895709
 30
0.0
  0
ENDBLK
  5
609
330
5FE
100
AcDbEntity
  8
0
 48
5.0
100
AcDbBlockEnd
  0
BLOCK
  5
614
330
60A
100
AcDbEntity
  8
0
 48
5.0
100
AcDbBlockBegin
  2
*D36
 70
     1
 10
0.0
 20
0.0
 30
0.0
  3
*D36
  1

  0
LINE
  5
60B
330
60A
100
AcDbEntity
  8
DIM
 62
     9
 48
5.0
370
    -2
100
AcDbLine
 10
1343652.013863444
 20
258400.6632895709
 30
0.0
 11
1344334.060880499
 21
258400.6632895709
 31
0.0
  0
LINE
  5
60C
330
60A
100
AcDbEntity
  8
DIM
 62
     9
 48
5.0
370
    -2
100
AcDbLine
 10
1343652.013863444
 20
260710.6632895709
 30
0.0
 11
1344334.060880499
 21
260710.6632895709
 31
0.0
  0
LINE
  5
60D
330
60A
100
AcDbEntity
  8
DIM
 62
     9
 48
5.0
370
    -2
100
AcDbLine
 10
1344134.060880499
 20
258460.6632895709
 30
0.0
 11
1344134.060880499
 21
260650.6632895709
 31
0.0
  0
INSERT
  5
60E
330
60A
100
AcDbEntity
  8
DIM
 62
     9
 48
5.0
370
    -2
100
AcDbBlockReference
  2
DOT
 10
1344134.060880499
 20
258400.6632895709
 30
0.0
 41
60.0
 42
60.0
 43
60.0
 50
270.0
  0
INSERT
  5
60F
330
60A
100
AcDbEntity
  8
DIM
 62
     9
 48
5.0
370
    -2
100
AcDbBlockReference
  2
DOT
 10
1344134.060880499
 20
260710.6632895709
 30
0.0
 41
60.0
 42
60.0
 43
60.0
 50
90.0
  0
MTEXT
  5
610
330
60A
100
AcDbEntity
  8
DIM
 62
    30
 48
5.0
100
AcDbMText
 10
1343941.714213833
 20
259555.6632895711
 30
0.0
 40
220.0
 41
0.0
 71
     5
 72
     1
  1
\A1;2310
  7
AVANH
 11
0.0000000000000001
 21
1.0
 31
0.0
 73
     1
 44
1.0
  0
POINT
  5
611
330
60A
100
AcDbEntity
  8
DEFPOINTS
 62
     0
 48
5.0
100
AcDbPoint
 10
1343652.013863444
 20
258400.6632895709
 30
0.0
  0
POINT
  5
612
330
60A
100
AcDbEntity
  8
DEFPOINTS
 62
     0
 48
5.0
100
AcDbPoint
 10
1343652.013863444
 20
260710.6632895709
 30
0.0
  0
POINT
  5
613
330
60A
100
AcDbEntity
  8
DEFPOINTS
 62
     0
 48
5.0
100
AcDbPoint
 10
1344134.060880499
 20
260710.6632895709
 30
0.0
  0
ENDBLK
  5
615
330
60A
100
AcDbEntity
  8
0
 48
5.0
100
AcDbBlockEnd
  0
BLOCK
  5
620
330
616
100
AcDbEntity
  8
0
 48
5.0
100
AcDbBlockBegin
  2
*D37
 70
     1
 10
0.0
 20
0.0
 30
0.0
  3
*D37
  1

  0
LINE
  5
617
330
616
100
AcDbEntity
  8
DIM
 62
     9
 48
5.0
370
    -2
100
AcDbLine
 10
1343652.013863444
 20
260710.6632895709
 30
0.0
 11
1344334.060880499
 21
260710.6632895709
 31
0.0
  0
LINE
  5
618
330
616
100
AcDbEntity
  8
DIM
 62
     9
 48
5.0
370
    -2
100
AcDbLine
 10
1343652.013863444
 20
263298.1632895708
 30
0.0
 11
1344334.060880499
 21
263298.1632895708
 31
0.0
  0
LINE
  5
619
330
616
100
AcDbEntity
  8
DIM
 62
     9
 48
5.0
370
    -2
100
AcDbLine
 10
1344134.060880499
 20
260770.6632895709
 30
0.0
 11
1344134.060880499
 21
263238.1632895708
 31
0.0
  0
INSERT
  5
61A
330
616
100
AcDbEntity
  8
DIM
 62
     9
 48
5.0
370
    -2
100
AcDbBlockReference
  2
DOT
 10
1344134.060880499
 20
260710.6632895709
 30
0.0
 41
60.0
 42
60.0
 43
60.0
 50
270.0
  0
INSERT
  5
61B
330
616
100
AcDbEntity
  8
DIM
 62
     9
 48
5.0
370
    -2
100
AcDbBlockReference
  2
DOT
 10
1344134.060880499
 20
263298.1632895708
 30
0.0
 41
60.0
 42
60.0
 43
60.0
 50
90.0
  0
MTEXT
  5
61C
330
616
100
AcDbEntity
  8
DIM
 62
    30
 48
5.0
100
AcDbMText
 10
1343941.714213833
 20
262004.413289571
 30
0.0
 40
220.0
 41
0.0
 71
     5
 72
     1
  1
\A1;2588
  7
AVANH
 11
0.0000000000000001
 21
1.0
 31
0.0
 73
     1
 44
1.0
  0
POINT
  5
61D
330
616
100
AcDbEntity
  8
DEFPOINTS
 62
     0
 48
5.0
100
AcDbPoint
 10
1343652.013863444
 20
260710.6632895709
 30
0.0
  0
POINT
  5
61E
330
616
100
AcDbEntity
  8
DEFPOINTS
 62
     0
 48
5.0
100
AcDbPoint
 10
1343652.013863444
 20
263298.1632895708
 30
0.0
  0
POINT
  5
61F
330
616
100
AcDbEntity
  8
DEFPOINTS
 62
     0
 48
5.0
100
AcDbPoint
 10
1344134.060880499
 20
263298.1632895708
 30
0.0
  0
ENDBLK
  5
621
330
616
100
AcDbEntity
  8
0
 48
5.0
100
AcDbBlockEnd
  0
BLOCK
  5
62C
330
622
100
AcDbEntity
  8
0
 48
5.0
100
AcDbBlockBegin
  2
*D38
 70
     1
 10
0.0
 20
0.0
 30
0.0
  3
*D38
  1

  0
LINE
  5
623
330
622
100
AcDbEntity
  8
DIM
 62
     9
 48
5.0
370
    -2
100
AcDbLine
 10
1343652.013863444
 20
263298.1632895708
 30
0.0
 11
1344334.060880499
 21
263298.1632895708
 31
0.0
  0
LINE
  5
624
330
622
100
AcDbEntity
  8
DIM
 62
     9
 48
5.0
370
    -2
100
AcDbLine
 10
1343652.013863444
 20
265608.1632895709
 30
0.0
 11
1344334.060880499
 21
265608.1632895709
 31
0.0
  0
LINE
  5
625
330
622
100
AcDbEntity
  8
DIM
 62
     9
 48
5.0
370
    -2
100
AcDbLine
 10
1344134.060880499
 20
263358.1632895709
 30
0.0
 11
1344134.060880499
 21
265548.1632895709
 31
0.0
  0
INSERT
  5
626
330
622
100
AcDbEntity
  8
DIM
 62
     9
 48
5.0
370
    -2
100
AcDbBlockReference
  2
DOT
 10
1344134.060880499
 20
263298.1632895708
 30
0.0
 41
60.0
 42
60.0
 43
60.0
 50
270.0
  0
INSERT
  5
627
330
622
100
AcDbEntity
  8
DIM
 62
     9
 48
5.0
370
    -2
100
AcDbBlockReference
  2
DOT
 10
1344134.060880499
 20
265608.1632895709
 30
0.0
 41
60.0
 42
60.0
 43
60.0
 50
90.0
  0
MTEXT
  5
628
330
622
100
AcDbEntity
  8
DIM
 62
    30
 48
5.0
100
AcDbMText
 10
1343941.714213833
 20
264453.1632895711
 30
0.0
 40
220.0
 41
0.0
 71
     5
 72
     1
  1
\A1;2310
  7
AVANH
 11
0.0000000000000001
 21
1.0
 31
0.0
 73
     1
 44
1.0
  0
POINT
  5
629
330
622
100
AcDbEntity
  8
DEFPOINTS
 62
     0
 48
5.0
100
AcDbPoint
 10
1343652.013863444
 20
263298.1632895708
 30
0.0
  0
POINT
  5
62A
330
622
100
AcDbEntity
  8
DEFPOINTS
 62
     0
 48
5.0
100
AcDbPoint
 10
1343652.013863444
 20
265608.1632895709
 30
0.0
  0
POINT
  5
62B
330
622
100
AcDbEntity
  8
DEFPOINTS
 62
     0
 48
5.0
100
AcDbPoint
 10
1344134.060880499
 20
265608.1632895709
 30
0.0
  0
ENDBLK
  5
62D
330
622
100
AcDbEntity
  8
0
 48
5.0
100
AcDbBlockEnd
  0
BLOCK
  5
638
330
62E
100
AcDbEntity
  8
0
 48
5.0
100
AcDbBlockBegin
  2
*D39
 70
     1
 10
0.0
 20
0.0
 30
0.0
  3
*D39
  1

  0
LINE
  5
62F
330
62E
100
AcDbEntity
  8
DIM
 62
     9
 48
5.0
370
    -2
100
AcDbLine
 10
1343652.013863444
 20
265608.1632895709
 30
0.0
 11
1344334.060880499
 21
265608.1632895709
 31
0.0
  0
LINE
  5
630
330
62E
100
AcDbEntity
  8
DIM
 62
     9
 48
5.0
370
    -2
100
AcDbLine
 10
1343652.013863444
 20
267618.1632895709
 30
0.0
 11
1344334.060880499
 21
267618.1632895709
 31
0.0
  0
LINE
  5
631
330
62E
100
AcDbEntity
  8
DIM
 62
     9
 48
5.0
370
    -2
100
AcDbLine
 10
1344134.060880499
 20
265668.1632895709
 30
0.0
 11
1344134.060880499
 21
267558.1632895708
 31
0.0
  0
INSERT
  5
632
330
62E
100
AcDbEntity
  8
DIM
 62
     9
 48
5.0
370
    -2
100
AcDbBlockReference
  2
DOT
 10
1344134.060880499
 20
265608.1632895709
 30
0.0
 41
60.0
 42
60.0
 43
60.0
 50
270.0
  0
INSERT
  5
633
330
62E
100
AcDbEntity
  8
DIM
 62
     9
 48
5.0
370
    -2
100
AcDbBlockReference
  2
DOT
 10
1344134.060880499
 20
267618.1632895709
 30
0.0
 41
60.0
 42
60.0
 43
60.0
 50
90.0
  0
MTEXT
  5
634
330
62E
100
AcDbEntity
  8
DIM
 62
    30
 48
5.0
100
AcDbMText
 10
1343941.714213833
 20
266613.1632895711
 30
0.0
 40
220.0
 41
0.0
 71
     5
 72
     1
  1
\A1;2010
  7
AVANH
 11
0.0000000000000001
 21
1.0
 31
0.0
 73
     1
 44
1.0
  0
POINT
  5
635
330
62E
100
AcDbEntity
  8
DEFPOINTS
 62
     0
 48
5.0
100
AcDbPoint
 10
1343652.013863444
 20
265608.1632895709
 30
0.0
  0
POINT
  5
636
330
62E
100
AcDbEntity
  8
DEFPOINTS
 62
     0
 48
5.0
100
AcDbPoint
 10
1343652.013863444
 20
267618.1632895709
 30
0.0
  0
POINT
  5
637
330
62E
100
AcDbEntity
  8
DEFPOINTS
 62
     0
 48
5.0
100
AcDbPoint
 10
1344134.060880499
 20
267618.1632895709
 30
0.0
  0
ENDBLK
  5
639
330
62E
100
AcDbEntity
  8
0
 48
5.0
100
AcDbBlockEnd
  0
BLOCK
  5
644
330
63A
100
AcDbEntity
  8
0
 48
5.0
100
AcDbBlockBegin
  2
*D40
 70
     1
 10
0.0
 20
0.0
 30
0.0
  3
*D40
  1

  0
LINE
  5
63B
330
63A
100
AcDbEntity
  8
DIM
 62
     9
 48
5.0
370
    -2
100
AcDbLine
 10
1343652.013863444
 20
268796.7238367652
 30
0.0
 11
1344711.255763401
 21
268796.7238367652
 31
0.0
  0
LINE
  5
63C
330
63A
100
AcDbEntity
  8
DIM
 62
     9
 48
5.0
370
    -2
100
AcDbLine
 10
1343652.013863444
 20
256390.663289868
 30
0.0
 11
1344711.255763401
 21
256390.663289868
 31
0.0
  0
LINE
  5
63D
330
63A
100
AcDbEntity
  8
DIM
 62
     9
 48
5.0
370
    -2
100
AcDbLine
 10
1344511.255763401
 20
268736.7238367652
 30
0.0
 11
1344511.255763401
 21
256450.6632898681
 31
0.0
  0
INSERT
  5
63E
330
63A
100
AcDbEntity
  8
DIM
 62
     9
 48
5.0
370
    -2
100
AcDbBlockReference
  2
DOT
 10
1344511.255763401
 20
268796.7238367652
 30
0.0
 41
60.0
 42
60.0
 43
60.0
 50
90.0
  0
INSERT
  5
63F
330
63A
100
AcDbEntity
  8
DIM
 62
     9
 48
5.0
370
    -2
100
AcDbBlockReference
  2
DOT
 10
1344511.255763401
 20
256390.663289868
 30
0.0
 41
60.0
 42
60.0
 43
60.0
 50
270.0
  0
MTEXT
  5
640
330
63A
100
AcDbEntity
  8
DIM
 62
    30
 48
5.0
100
AcDbMText
 10
1344318.909096734
 20
262593.6935633168
 30
0.0
 40
220.0
 41
0.0
 71
     5
 72
     1
  1
\A1;12406
  7
AVANH
 11
0.0000000000000001
 21
1.0
 31
0.0
 73
     1
 44
1.0
  0
POINT
  5
641
330
63A
100
AcDbEntity
  8
DEFPOINTS
 62
     0
 48
5.0
100
AcDbPoint
 10
1343652.013863444
 20
268796.7238367652
 30
0.0
  0
POINT
  5
642
330
63A
100
AcDbEntity
  8
DEFPOINTS
 62
     0
 48
5.0
100
AcDbPoint
 10
1343652.013863444
 20
256390.663289868
 30
0.0
  0
POINT
  5
643
330
63A
100
AcDbEntity
  8
DEFPOINTS
 62
     0
 48
5.0
100
AcDbPoint
 10
1344511.255763401
 20
256390.663289868
 30
0.0
  0
ENDBLK
  5
645
330
63A
100
AcDbEntity
  8
0
 48
5.0
100
AcDbBlockEnd
  0
ENDSEC
  0
SECTION
  2
ENTITIES
  0
LWPOLYLINE
  5
50
330
2
100
AcDbEntity
  8
thay m
  6
ByBlock
370
    -2
100
AcDbPolyline
 90
        4
 70
     1
 43
0.0
 10
1350889.218436648
 20
247695.8559084689
 10
1350889.218436648
 20
272610.5392605406
 10
1314359.50420794
 20
272610.5392605406
 10
1314359.50420794
 20
247695.8559084689
  0
LINE
  5
55
330
2
100
AcDbEntity
  8
TUONG
100
AcDbLine
 10
1342901.335555381
 20
268875.474075789
 30
0.0
 11
1319252.260674006
 21
269165.3170901484
 31
0.0
  0
LINE
  5
56
330
2
100
AcDbEntity
  8
TUONG
100
AcDbLine
 10
1342898.88453973
 20
268675.4890956826
 30
0.0
 11
1319249.809658474
 21
268965.3321100421
 31
0.0
  0
LINE
  5
57
330
2
100
AcDbEntity
  8
TUONG
100
AcDbLine
 10
1342901.3320067
 20
268875.4778294511
 30
0.0
 11
1319252.257241733
 21
269165.330340857
 31
0.0
  0
LWPOLYLINE
  5
58
330
2
100
AcDbEntity
  8
CUA
 48
5.0
100
AcDbPolyline
 90
        2
 70
     1
 43
199.7499993759253
 10
1343001.457005924
 20
268875.4856606669
 42
1.0
 10
1342801.207007236
 20
268875.4699979968
 42
1.0
  0
LINE
  5
5D
330
2
100
AcDbEntity
  8
TUONG
100
AcDbLine
 10
1342901.335792846
 20
268875.5067849106
 30
0.0
 11
1319252.260672636
 21
269165.3302986569
 31
0.0
  0
LINE
  5
5E
330
2
100
AcDbEntity
  8
TUONG
100
AcDbLine
 10
1343383.948424454
 20
255142.4286338178
 30
0.0
 11
1342901.332244164
 21
268875.5105384535
 31
0.0
  0
LINE
  5
5F
330
2
100
AcDbEntity
  8
TUONG
100
AcDbLine
 10
1342901.332244164
 20
268875.5105384535
 30
0.0
 11
1319252.257240242
 21
269165.3435496039
 31
0.0
  0
LINE
  5
60
330
2
100
AcDbEntity
  8
TUONG
100
AcDbLine
 10
1319253.365672781
 20
255141.6380678882
 30
0.0
 11
1319252.257240326
 21
269165.3502887232
 31
0.0
  0
LINE
  5
61
330
2
100
AcDbEntity
  8
TUONG
100
AcDbLine
 10
1319453.36567267
 20
255141.6380678882
 30
0.0
 11
1319452.257433838
 21
269162.8990867085
 31
0.0
  0
LINE
  5
62
330
2
100
AcDbEntity
  8
CUA
 48
5.0
100
AcDbLine
 10
1340235.8225025
 20
255967.0020457077
 30
0.0
 11
1339035.822510011
 21
255966.9071978413
 31
0.0
  0
LINE
  5
63
330
2
100
AcDbEntity
  8
CUA
 48
5.0
100
AcDbLine
 10
1339035.88767674
 20
255142.4286338178
 30
0.0
 11
1339035.822510011
 21
255966.9071978413
 31
0.0
  0
LINE
  5
64
330
2
100
AcDbEntity
  8
CUA
 48
5.0
100
AcDbLine
 10
1339335.88767669
 20
255142.4286338178
 30
0.0
 11
1339335.822508223
 21
255966.9309097476
 31
0.0
  0
LINE
  5
65
330
2
100
AcDbEntity
  8
CUA
 48
5.0
100
AcDbLine
 10
1339635.887676679
 20
255142.4286338178
 30
0.0
 11
1339635.822506255
 21
255966.9546217866
 31
0.0
  0
LINE
  5
66
330
2
100
AcDbEntity
  8
CUA
 48
5.0
100
AcDbLine
 10
1339935.887676705
 20
255142.4286338178
 30
0.0
 11
1339935.822504408
 21
255966.9783337064
 31
0.0
  0
LINE
  5
67
330
2
100
AcDbEntity
  8
CUA
 48
5.0
100
AcDbLine
 10
1340235.887676727
 20
255142.4286338178
 30
0.0
 11
1340235.796920338
 21
256290.6632898676
 31
0.0
  0
INSERT
  5
68
330
2
100
AcDbEntity
  8
CUA
100
AcDbBlockReference
  2
cot
 10
-10297004.87925557
 20
-39316987.2122794
 30
0.0
 41
499.9999984420387
 42
499.9999984502792
 43
499.9999984378606
 50
359.9288079435702
  0
TEXT
  5
73
330
2
100
AcDbEntity
  8
TEXT
 48
5.0
100
AcDbText
 10
1341714.599862513
 20
255512.0942426773
 30
0.0
 40
194.9999993907656
  1
0,000
 50
359.9288079461347
  7
a 1
100
AcDbText
  0
LINE
  5
79
330
2
100
AcDbEntity
  8
netmanh
 48
5.0
100
AcDbLine
 10
1341371.832611244
 20
263298.1632895706
 30
0.0
 11
1341729.678509217
 21
263876.0005525587
 31
0.0
  0
LINE
  5
7E
330
2
100
AcDbEntity
  8
netmanh
 48
5.0
100
AcDbLine
 10
1341729.678509217
 20
263876.0005525587
 30
0.0
 11
1341729.769849043
 21
262720.382602
 31
0.0
  0
LINE
  5
7F
330
2
100
AcDbEntity
  8
netmanh
 48
5.0
100
AcDbLine
 10
1341371.832611244
 20
263298.1632895706
 30
0.0
 11
1341729.769849043
 21
262720.382602
 31
0.0
  0
HATCH
  5
80
330
2
100
AcDbEntity
  8
netmanh
 48
5.0
100
AcDbHatch
 10
0.0
 20
0.0
 30
0.0
210
0.0
220
0.0
230
1.0
  2
ANSI38
 70
     0
 71
     0
 91
        4
 92
        7
 72
     0
 73
     1
 93
        3
 10
1341729.769849043
 20
262720.382602
 10
1341729.678509217
 20
263876.0005525587
 10
1341371.832611244
 20
263298.1632895706
 97
        0
 92
        7
 72
     0
 73
     1
 93
        4
 10
1341971.690149944
 20
262870.8864500759
 10
1341971.622059803
 20
263732.3511673448
 10
1341911.856722396
 20
263732.3464435575
 10
1341911.924812418
 20
262870.8817262885
 97
        0
 92
        7
 72
     0
 73
     1
 93
        4
 10
1342140.660226982
 20
262870.899805331
 10
1342140.592136841
 20
263732.3645227191
 10
1342080.826799255
 20
263732.3597988126
 10
1342080.894889217
 20
262870.8950815437
 97
        0
 92
        7
 72
     0
 73
     1
 93
        4
 10
1342309.630303483
 20
262870.9131607053
 10
1342309.562213462
 20
263732.3778782127
 10
1342249.796876054
 20
263732.3731544254
 10
1342249.864966195
 20
262870.9084367988
 97
        0
 75
     0
 76
     1
 52
-89.99547134839216
 41
99.99999968757215
 77
     0
 78
     2
 53
315.0045286516078
 43
1057979.082855445
 44
1737038.774361157
 45
8.838136089160288
 46
8.839533330054557
 79
     0
 53
45.0045286516078
 43
1057979.082855445
 44
1737038.774361157
 45
8.836738848266016
 46
26.5172027492694
 79
     2
 49
31.24999990236628
 49
-18.74999994141976
 47
4.976199920065897
 98
        4
 10
1341501.968635779
 20
263319.4293656585
 10
1341944.851029139
 20
263314.4832681654
 10
1342114.041810971
 20
263314.4966410635
 10
1342293.184935492
 20
263314.5108003852
1001
ACAD
1010
0.0
1020
0.0
1030
0.0
1000
RTMaterial
1005
0
  0
TEXT
  5
81
330
2
100
AcDbEntity
  8
TEXT
 48
5.0
100
AcDbText
 10
1340740.487229776
 20
264051.6654705504
 30
0.0
 40
194.9999993907656
  1
LOÁI VAØO GARA
 50
1.412783226521695
  7
a 1
100
AcDbText
  0
LINE
  5
82
330
2
100
AcDbEntity
  8
TUONG
100
AcDbLine
 10
1342901.337391741
 20
268875.5072098917
 30
0.0
 11
1319252.257240326
 21
269165.3502887232
 31
0.0
  0
TEXT
  5
83
330
2
100
AcDbEntity
  8
TEXT
 48
5.0
100
AcDbText
 10
1340296.076407822
 20
255392.4567764465
 30
0.0
 40
194.9999993907656
  1
LOÁI WC
 50
1.412783226521695
  7
a 1
100
AcDbText
  0
LINE
  5
84
330
2
100
AcDbEntity
  8
netmanh
 48
5.0
100
AcDbLine
 10
1341007.423335261
 20
256016.1412170954
 30
0.0
 11
1340602.957052536
 21
256016.1092481143
 31
0.0
  0
LINE
  5
85
330
2
100
AcDbEntity
  8
netmanh
 48
5.0
100
AcDbLine
 10
1340805.180293209
 20
256141.3872814305
 30
0.0
 11
1340602.957052536
 21
256016.1092481143
 31
0.0
  0
LWPOLYLINE
  5
86
330
2
100
AcDbEntity
  8
netmanh
 48
5.0
100
AcDbPolyline
 90
        4
 70
     1
 43
0.0
 10
1340957.1460504
 20
255931.4609743781
 10
1340655.633399315
 20
255931.4371428616
 10
1340655.631745941
 20
255952.3550110288
 10
1340957.144397087
 20
255952.3788424857
  0
LWPOLYLINE
  5
87
330
2
100
AcDbEntity
  8
netmanh
 48
5.0
100
AcDbPolyline
 90
        4
 70
     1
 43
0.0
 10
1340957.150724775
 20
255872.3214474447
 10
1340655.638073749
 20
255872.2976158984
 10
1340655.636420316
 20
255893.2154841251
 10
1340957.149071462
 20
255893.2393155821
  0
HATCH
  5
88
330
2
100
AcDbEntity
  8
netmanh
 48
5.0
100
AcDbHatch
 10
0.0
 20
0.0
 30
0.0
210
0.0
220
0.0
230
1.0
  2
ANSI38
 70
     0
 71
     0
 91
        4
 92
        7
 72
     0
 73
     1
 93
        3
 10
1340602.957052536
 20
256016.1092481143
 10
1341007.423335261
 20
256016.1412170954
 10
1340805.180293209
 20
256141.3872814305
 97
        0
 92
        7
 72
     0
 73
     1
 93
        4
 10
1340655.633399315
 20
255931.4371428616
 10
1340957.1460504
 20
255931.4609743781
 10
1340957.144397087
 20
255952.3788424857
 10
1340655.631745941
 20
255952.3550110288
 97
        0
 92
        7
 72
     0
 73
     1
 93
        4
 10
1340655.638073749
 20
255872.2976158984
 10
1340957.150724775
 20
255872.3214474447
 10
1340957.149071462
 20
255893.2393155821
 10
1340655.636420316
 20
255893.2154841251
 97
        0
 92
        7
 72
     0
 73
     1
 93
        4
 10
1340655.642748065
 20
255813.1580890544
 10
1340957.15539915
 20
255813.181920541
 10
1340957.153745777
 20
255834.0997887381
 10
1340655.641094751
 20
255834.0759572215
 97
        0
 75
     0
 76
     1
 52
-179.9954713483922
 41
34.99999989065024
 77
     0
 78
     2
 53
225.0045286516077
 43
1856614.394168205
 44
355328.8496959333
 45
3.093836665519094
 46
-3.0933476312061
 79
     0
 53
315.0045286516077
 43
1856614.394168205
 44
355328.8496959333
 45
9.281020962244287
 46
-3.092858596893108
 79
     2
 49
10.93749996582819
 49
-6.562499979496915
 47
4.976199920065897
 98
        4
 10
1340812.623419768
 20
256095.8396728761
 10
1340810.892285711
 20
255940.8308352061
 10
1340810.896966166
 20
255881.6140614279
 10
1340810.901921994
 20
255818.9139679201
1001
ACAD
1010
0.0
1020
0.0
1030
0.0
1000
RTMaterial
1005
0
  0
LWPOLYLINE
  5
89
330
2
100
AcDbEntity
  8
netmanh
 48
5.0
100
AcDbPolyline
 90
        4
 70
     1
 43
0.0
 10
1340957.15539915
 20
255813.181920541
 10
1340655.642748065
 20
255813.1580890544
 10
1340655.641094751
 20
255834.0759572215
 10
1340957.153745777
 20
255834.0997887381
  0
LINE
  5
8A
330
2
100
AcDbEntity
  8
tim 08
 48
5.0
100
AcDbLine
 10
1322280.010127017
 20
252833.7356940285
 30
0.0
 11
1322280.010127017
 21
269905.4337362203
 31
0.0
  0
LINE
  5
90
330
2
100
AcDbEntity
  8
tim 08
 48
5.0
100
AcDbLine
 10
1324290.010127017
 20
252833.7356940285
 30
0.0
 11
1324290.010127017
 21
269905.4337362203
 31
0.0
  0
LINE
  5
91
330
2
100
AcDbEntity
  8
tim 08
 48
5.0
100
AcDbLine
 10
1326600.010127017
 20
252833.7356940285
 30
0.0
 11
1326600.010127017
 21
269905.4337362203
 31
0.0
  0
LINE
  5
92
330
2
100
AcDbEntity
  8
tim 08
 48
5.0
100
AcDbLine
 10
1329187.510127017
 20
252833.7356940285
 30
0.0
 11
1329187.510127017
 21
269905.4337362203
 31
0.0
  0
LINE
  5
93
330
2
100
AcDbEntity
  8
tim 08
 48
5.0
100
AcDbLine
 10
1332060.010127017
 20
252833.7356940285
 30
0.0
 11
1332060.010127017
 21
269905.4337362203
 31
0.0
  0
LINE
  5
94
330
2
100
AcDbEntity
  8
tim 08
 48
5.0
100
AcDbLine
 10
1334647.510127017
 20
252833.7356940285
 30
0.0
 11
1334647.510127017
 21
269905.4337362203
 31
0.0
  0
LINE
  5
95
330
2
100
AcDbEntity
  8
TUONG
100
AcDbLine
 10
1334747.510127017
 20
256490.6632898677
 30
0.0
 11
1334747.510127017
 21
260610.6632895706
 31
0.0
  0
LINE
  5
96
330
2
100
AcDbEntity
  8
CUA
 48
5.0
100
AcDbLine
 10
1335347.510127017
 20
256490.6632898677
 30
0.0
 11
1335347.510127017
 21
257908.9824235303
 31
0.0
  0
LINE
  5
97
330
2
100
AcDbEntity
  8
tim 08
 48
5.0
100
AcDbLine
 10
1336957.510127017
 20
252833.7356940285
 30
0.0
 11
1336957.510127017
 21
269905.4337362203
 31
0.0
  0
LINE
  5
98
330
2
100
AcDbEntity
  8
tim 08
 48
5.0
100
AcDbLine
 10
1338967.510127017
 20
252833.7356940285
 30
0.0
 11
1338967.510127017
 21
269905.4337362203
 31
0.0
  0
LINE
  5
99
330
2
100
AcDbEntity
  8
tim 08
 48
5.0
100
AcDbLine
 10
1341167.510127017
 20
252833.7356940285
 30
0.0
 11
1341167.510127017
 21
268896.7569933651
 31
0.0
  0
LINE
  5
9A
330
2
100
AcDbEntity
  8
TUONG
100
AcDbLine
 10
1341067.510127017
 20
256278.7686934004
 30
0.0
 11
1341067.510127017
 21
260710.6632895708
 31
0.0
  0
LINE
  5
9B
330
2
100
AcDbEntity
  8
CUA
 48
5.0
100
AcDbLine
 10
1340467.510127017
 20
259154.2452693537
 30
0.0
 11
1340467.510127017
 21
260610.663289571
 31
0.0
  0
LINE
  5
9C
330
2
100
AcDbEntity
  8
TUONG
100
AcDbLine
 10
1340967.510127017
 20
257690.9801584355
 30
0.0
 11
1340967.510127017
 21
257790.7360966458
 31
0.0
  0
LINE
  5
9D
330
2
100
AcDbEntity
  8
TUONG
100
AcDbLine
 10
1340267.609410795
 20
257690.9230821851
 30
0.0
 11
1340267.609410795
 21
257790.6807765906
 31
0.0
  0
LINE
  5
9E
330
2
100
AcDbEntity
  8
TUONG
100
AcDbLine
 10
1341267.510127017
 20
256278.7845013496
 30
0.0
 11
1341267.510127017
 21
260710.6790975717
 31
0.0
  0
LINE
  5
9F
330
2
100
AcDbEntity
  8
tim 08
 48
5.0
100
AcDbLine
 10
1340239.207025324
 20
256390.6632898679
 30
0.0
 11
1319253.266949984
 21
256390.6632898679
 31
0.0
  0
LINE
  5
A0
330
2
100
AcDbEntity
  8
TUONG
100
AcDbLine
 10
1340239.207025324
 20
256290.6632898679
 30
0.0
 11
1322180.305755834
 21
256290.6632898679
 31
0.0
  0
LINE
  5
A1
330
2
100
AcDbEntity
  8
TUONG
100
AcDbLine
 10
1340239.207025324
 20
256490.6632898679
 30
0.0
 11
1322280.045804938
 21
256490.6632898679
 31
0.0
  0
LINE
  5
A2
330
2
100
AcDbEntity
  8
tim 08
 48
5.0
100
AcDbLine
 10
1343735.314064526
 20
258400.6632895708
 30
0.0
 11
1319253.108079836
 21
258400.6632895708
 31
0.0
  0
LINE
  5
A3
330
2
100
AcDbEntity
  8
tim 08
 48
5.0
100
AcDbLine
 10
1343652.013863444
 20
260710.6632895709
 30
0.0
 11
1319252.925497726
 21
260710.6632895708
 31
0.0
  0
LINE
  5
A4
330
2
100
AcDbEntity
  8
TUONG
100
AcDbLine
 10
1341067.510127017
 20
260610.663289571
 30
0.0
 11
1334747.510127017
 21
260610.6632895706
 31
0.0
  0
LINE
  5
A5
330
2
100
AcDbEntity
  8
TUONG
100
AcDbLine
 10
1339057.510127017
 20
259110.6632895709
 30
0.0
 11
1338857.510127018
 21
259110.6632895708
 31
0.0
  0
LINE
  5
A6
330
2
100
AcDbEntity
  8
TUONG
100
AcDbLine
 10
1337157.46540805
 20
259110.6632895708
 30
0.0
 11
1336957.510127017
 21
259110.6632895707
 31
0.0
  0
LINE
  5
A7
330
2
100
AcDbEntity
  8
TUONG
100
AcDbLine
 10
1338957.510127018
 20
259210.6632895709
 30
0.0
 11
1338857.510127018
 21
259210.6632895708
 31
0.0
  0
LINE
  5
A8
330
2
100
AcDbEntity
  8
TUONG
100
AcDbLine
 10
1337157.46540805
 20
259210.6632895707
 30
0.0
 11
1336957.510127017
 21
259210.6632895707
 31
0.0
  0
LINE
  5
A9
330
2
100
AcDbEntity
  8
TUONG
100
AcDbLine
 10
1336857.510127017
 20
258810.6632895707
 30
0.0
 11
1336707.8094536
 21
258810.6632895707
 31
0.0
  0
LINE
  5
AA
330
2
100
AcDbEntity
  8
TUONG
100
AcDbLine
 10
1336008.580332838
 20
258810.6632895707
 30
0.0
 11
1335702.510127017
 21
258810.6632895707
 31
0.0
  0
LINE
  5
AB
330
2
100
AcDbEntity
  8
TUONG
100
AcDbLine
 10
1335003.281006255
 20
258810.6632895707
 30
0.0
 11
1334747.510127017
 21
258810.6632895705
 31
0.0
  0
LINE
  5
AC
330
2
100
AcDbEntity
  8
TUONG
100
AcDbLine
 10
1336857.510127017
 20
258910.6632895707
 30
0.0
 11
1336707.8094536
 21
258910.6632895707
 31
0.0
  0
LINE
  5
AD
330
2
100
AcDbEntity
  8
TUONG
100
AcDbLine
 10
1336008.580332838
 20
258910.6632895707
 30
0.0
 11
1335902.510127017
 21
258910.6632895707
 31
0.0
  0
LINE
  5
AE
330
2
100
AcDbEntity
  8
TUONG
100
AcDbLine
 10
1335802.510127017
 20
258910.6632895707
 30
0.0
 11
1335702.510127017
 21
258910.6632895707
 31
0.0
  0
LINE
  5
AF
330
2
100
AcDbEntity
  8
TUONG
100
AcDbLine
 10
1335003.281006255
 20
258910.6632895707
 30
0.0
 11
1334747.510127017
 21
258910.6632895706
 31
0.0
  0
LINE
  5
B0
330
2
100
AcDbEntity
  8
tim 08
 48
5.0
100
AcDbLine
 10
1343652.013863444
 20
263298.1632895705
 30
0.0
 11
1319252.72098205
 21
263298.1632895708
 31
0.0
  0
LINE
  5
B1
330
2
100
AcDbEntity
  8
tim 08
 48
5.0
100
AcDbLine
 10
1343652.013863444
 20
265608.1632895703
 30
0.0
 11
1319252.53839994
 21
265608.163289571
 31
0.0
  0
LINE
  5
B2
330
2
100
AcDbEntity
  8
tim 08
 48
5.0
100
AcDbLine
 10
1343652.013863444
 20
267618.1632895708
 30
0.0
 11
1319252.379529792
 21
267618.1632895708
 31
0.0
  0
LINE
  5
B3
330
2
100
AcDbEntity
  8
CUA
100
AcDbLine
 10
1325551.866572069
 20
267284.1562923438
 30
0.0
 11
1325352.35466487
 21
267286.6015098846
 31
0.0
  0
LINE
  5
B4
330
2
100
AcDbEntity
  8
CUA
100
AcDbLine
 10
1325601.740606177
 20
267333.4267105382
 30
0.0
 11
1325302.472745459
 21
267337.0945368217
 31
0.0
  0
LINE
  5
B5
330
2
100
AcDbEntity
  8
CUA
100
AcDbLine
 10
1322237.625227834
 20
268330.6216800929
 30
0.0
 11
1320050.376655205
 21
268357.4285942925
 31
0.0
  0
LINE
  5
B6
330
2
100
AcDbEntity
  8
TUONG
100
AcDbLine
 10
1322180.305755834
 20
256290.6632898679
 30
0.0
 11
1322179.731803998
 21
263552.2128276558
 31
0.0
  0
LINE
  5
B7
330
2
100
AcDbEntity
  8
TUONG
100
AcDbLine
 10
1322179.621418301
 20
264948.7948164247
 30
0.0
 11
1322179.306815193
 21
268929.1039875523
 31
0.0
  0
LINE
  5
B8
330
2
100
AcDbEntity
  8
TUONG
100
AcDbLine
 10
1322280.045804938
 20
256490.6632898679
 30
0.0
 11
1322279.487660298
 21
263552.2207124136
 31
0.0
  0
LINE
  5
B9
330
2
100
AcDbEntity
  8
TUONG
100
AcDbLine
 10
1322279.377274626
 20
264948.8027011289
 30
0.0
 11
1322279.062768739
 21
268927.881378756
 31
0.0
  0
LINE
  5
BA
330
2
100
AcDbEntity
  8
CUA
100
AcDbLine
 10
1325352.476523299
 20
265744.8686050049
 30
0.0
 11
1325352.35466487
 21
267286.6015098846
 31
0.0
  0
LINE
  5
BB
330
2
100
AcDbEntity
  8
CUA
100
AcDbLine
 10
1325302.598595123
 20
265744.8646626797
 30
0.0
 11
1325302.472745459
 21
267337.0945368217
 31
0.0
  0
LINE
  5
BC
330
2
100
AcDbEntity
  8
CUA
100
AcDbLine
 10
1320051.039186948
 20
259975.1820698691
 30
0.0
 11
1320050.646086307
 21
264948.6292379409
 31
0.0
  0
LINE
  5
BD
330
2
100
AcDbEntity
  8
CUA
100
AcDbLine
 10
1320050.598778107
 20
265547.164375841
 30
0.0
 11
1320050.376655205
 21
268357.4285942925
 31
0.0
  0
LINE
  5
BE
330
2
100
AcDbEntity
  8
TUONG
100
AcDbLine
 10
1341266.83922963
 20
265608.1790590308
 30
0.0
 11
1341266.721608327
 21
268696.3331096797
 31
0.0
  0
LINE
  5
BF
330
2
100
AcDbEntity
  8
TUONG
100
AcDbLine
 10
1341067.327516872
 20
265608.1632895706
 30
0.0
 11
1341067.209701052
 21
268698.7783272155
 31
0.0
  0
LINE
  5
C0
330
2
100
AcDbEntity
  8
TUONG
100
AcDbLine
 10
1341067.510127017
 20
256278.7686934004
 30
0.0
 11
1341267.510127017
 21
256278.7845013496
 31
0.0
  0
LINE
  5
C1
330
2
100
AcDbEntity
  8
TUONG
100
AcDbLine
 10
1319452.70804815
 20
257394.1680579864
 30
0.0
 11
1319751.975617152
 21
257394.1917120459
 31
0.0
  0
LINE
  5
C2
330
2
100
AcDbEntity
  8
TUONG
100
AcDbLine
 10
1320450.266611483
 20
257394.2469048685
 30
0.0
 11
1322180.218517936
 21
257394.383640033
 31
0.0
  0
LINE
  5
C3
330
2
100
AcDbEntity
  8
TUONG
100
AcDbLine
 10
1319453.203440936
 20
257194.1680965057
 30
0.0
 11
1319751.991425125
 21
257194.1917126676
 31
0.0
  0
LINE
  5
C4
330
2
100
AcDbEntity
  8
TUONG
100
AcDbLine
 10
1320450.282419452
 20
257194.2469054929
 30
0.0
 11
1322180.234325908
 21
257194.3836406577
 31
0.0
  0
LINE
  5
C5
330
2
100
AcDbEntity
  8
TUONG
100
AcDbLine
 10
1336857.510127017
 20
257690.655652681
 30
0.0
 11
1338868.368911747
 21
257690.8092257218
 31
0.0
  0
LINE
  5
C6
330
2
100
AcDbEntity
  8
TUONG
100
AcDbLine
 10
1338968.124768206
 20
257690.8171104245
 30
0.0
 11
1340267.609410795
 21
257690.9230821851
 31
0.0
  0
LINE
  5
C7
330
2
100
AcDbEntity
  8
TUONG
100
AcDbLine
 10
1340967.510127017
 20
257690.9801584355
 30
0.0
 11
1341068.079755461
 21
257690.9883597948
 31
0.0
  0
LINE
  5
C8
330
2
100
AcDbEntity
  8
TUONG
100
AcDbLine
 10
1336957.510127017
 20
257790.4191468026
 30
0.0
 11
1340267.609410795
 21
257790.6807765903
 31
0.0
  0
LINE
  5
C9
330
2
100
AcDbEntity
  8
TUONG
100
AcDbLine
 10
1337657.510127017
 20
258390.4744768919
 30
0.0
 11
1337697.510127017
 21
258390.4776384864
 31
0.0
  0
LINE
  5
CA
330
2
100
AcDbEntity
  8
TUONG
100
AcDbLine
 10
1340967.510127017
 20
257790.7360966458
 30
0.0
 11
1341068.071870779
 21
257790.744045032
 31
0.0
  0
LINE
  5
CB
330
2
100
AcDbEntity
  8
TUONG
100
AcDbLine
 10
1341266.839229523
 20
265608.1790589791
 30
0.0
 11
1341067.327516872
 21
265608.1632895706
 31
0.0
  0
LINE
  5
CC
330
2
100
AcDbEntity
  8
TUONG
100
AcDbLine
 10
1338968.13267209
 20
257590.8171107386
 30
0.0
 11
1338968.124768206
 21
257690.8171104245
 31
0.0
  0
LINE
  5
CD
330
2
100
AcDbEntity
  8
TUONG
100
AcDbLine
 10
1338868.37681579
 20
257590.8092260341
 30
0.0
 11
1338968.132672115
 21
257590.8171107386
 31
0.0
  0
LINE
  5
CE
330
2
100
AcDbEntity
  8
TUONG
100
AcDbLine
 10
1338868.463771511
 20
256490.6632898682
 30
0.0
 11
1338868.432095487
 21
256891.4218426094
 31
0.0
  0
LINE
  5
CF
330
2
100
AcDbEntity
  8
TUONG
100
AcDbLine
 10
1338868.37681579
 20
257590.8092260343
 30
0.0
 11
1338868.368911773
 21
257690.8092256683
 31
0.0
  0
LINE
  5
D0
330
2
100
AcDbEntity
  8
CUA
100
AcDbLine
 10
1325551.937881044
 20
266381.9656138118
 30
0.0
 11
1325551.866572069
 21
267284.1562923438
 31
0.0
  0
LINE
  5
D1
330
2
100
AcDbEntity
  8
CUA
100
AcDbLine
 10
1325601.814451588
 20
266399.147450347
 30
0.0
 11
1325601.740606177
 21
267333.4267105382
 31
0.0
  0
LINE
  5
D2
330
2
100
AcDbEntity
  8
CUA
100
AcDbLine
 10
1326549.469289746
 20
266725.6023438022
 30
0.0
 11
1326549.299332904
 21
268875.8695792179
 31
0.0
  0
LINE
  5
D3
330
2
100
AcDbEntity
  8
CUA
100
AcDbLine
 10
1326599.46928959
 20
266725.6062957957
 30
0.0
 11
1326599.299381496
 21
268875.2567787227
 31
0.0
  0
LINE
  5
D4
330
2
100
AcDbEntity
  8
CUA
100
AcDbLine
 10
1325601.744500219
 20
267284.1602347226
 30
0.0
 11
1326549.425135484
 21
267284.2351393307
 31
0.0
  0
LINE
  5
D5
330
2
100
AcDbEntity
  8
CUA
100
AcDbLine
 10
1325601.766577309
 20
267004.8438369057
 30
0.0
 11
1326549.447212548
 21
267004.9187415674
 31
0.0
  0
LINE
  5
D6
330
2
100
AcDbEntity
  8
CUA
100
AcDbLine
 10
1325601.788654481
 20
266725.5274391941
 30
0.0
 11
1326549.469289746
 21
266725.6023438022
 31
0.0
  0
LINE
  5
D7
330
2
100
AcDbEntity
  8
CUA
100
AcDbLine
 10
1325601.810731653
 20
266446.2110414825
 30
0.0
 11
1325738.465108408
 21
266446.2218426571
 31
0.0
  0
LINE
  5
D8
330
2
100
AcDbEntity
  8
CUA
100
AcDbLine
 10
1325302.476931349
 20
267284.1365806615
 30
0.0
 11
1324354.79629611
 21
267284.0616759996
 31
0.0
  0
LINE
  5
D9
330
2
100
AcDbEntity
  8
CUA
100
AcDbLine
 10
1325302.499008414
 20
267004.820182898
 30
0.0
 11
1324354.818373175
 21
267004.7452782363
 31
0.0
  0
LINE
  5
DA
330
2
100
AcDbEntity
  8
CUA
100
AcDbLine
 10
1325302.521085586
 20
266725.5037851865
 30
0.0
 11
1324354.840450347
 21
266725.4288805247
 31
0.0
  0
LINE
  5
DB
330
2
100
AcDbEntity
  8
CUA
100
AcDbLine
 10
1325302.543162651
 20
266446.187387423
 30
0.0
 11
1324354.862527518
 21
266446.1124828131
 31
0.0
  0
LINE
  5
DC
330
2
100
AcDbEntity
  8
CUA
100
AcDbLine
 10
1325302.565239955
 20
266166.8709897095
 30
0.0
 11
1324354.884604717
 21
266166.7960850476
 31
0.0
  0
LINE
  5
DD
330
2
100
AcDbEntity
  8
CUA
100
AcDbLine
 10
1325417.194504761
 20
265887.5636504817
 30
0.0
 11
1325352.465245063
 21
265887.5585342733
 31
0.0
  0
LINE
  5
DE
330
2
100
AcDbEntity
  8
CUA
100
AcDbLine
 10
1325302.587316887
 20
265887.554591948
 30
0.0
 11
1324354.906681781
 21
265887.4796872845
 31
0.0
  0
ARC
  5
DF
330
2
100
AcDbEntity
  8
CUA
100
AcDbCircle
 10
1325417.205543426
 20
265747.9054515982
 30
0.0
 40
139.658199309372
100
AcDbArc
 50
270.0045286555483
 51
90.00452865554825
  0
LINE
  5
E0
330
2
100
AcDbEntity
  8
CUA
100
AcDbLine
 10
1325417.216581933
 20
265608.2472527701
 30
0.0
 11
1324354.928759086
 21
265608.1632895708
 31
0.0
  0
LINE
  5
E1
330
2
100
AcDbEntity
  8
CUA
100
AcDbLine
 10
1325352.431599325
 20
266313.2382678239
 30
0.0
 11
1326599.345860049
 21
266742.7841802876
 31
0.0
  0
CIRCLE
  5
E2
330
2
100
AcDbEntity
  8
CUA
100
AcDbCircle
 10
1325381.38011407
 20
265744.870889525
 30
0.0
 40
28.90359094139576
  0
ARC
  5
E3
330
2
100
AcDbEntity
  8
CUA
100
AcDbCircle
 10
1325381.38011407
 20
265744.870889525
 30
0.0
 40
78.78151926509142
100
AcDbArc
 50
180.004528642208
 51
111.5280332424344
  0
ARC
  5
E4
330
2
100
AcDbEntity
  8
CUA
100
AcDbCircle
 10
1319751.975617152
 20
257394.1917120459
 30
0.0
 40
698.2909965076313
100
AcDbArc
 50
0.0045286422080566
 51
90.00452865554825
  0
LINE
  5
E5
330
2
100
AcDbEntity
  8
CUA
100
AcDbLine
 10
1319751.975617152
 20
257394.1917120459
 30
0.0
 11
1319751.920424383
 21
258092.4827064025
 31
0.0
  0
LINE
  5
E6
330
2
100
AcDbEntity
  8
CUA
100
AcDbLine
 10
1319751.975617152
 20
257394.1917120459
 30
0.0
 11
1320450.266611483
 21
257394.2469048685
 31
0.0
  0
LINE
  5
E7
330
2
100
AcDbEntity
  8
CUA
100
AcDbLine
 10
1321347.472218643
 20
264948.731738882
 30
0.0
 11
1320050.646086307
 21
264948.6292379409
 31
0.0
  0
LINE
  5
E8
330
2
100
AcDbEntity
  8
CUA
100
AcDbLine
 10
1321347.424910499
 20
265547.2668769407
 30
0.0
 11
1320050.598778107
 21
265547.164375841
 31
0.0
  0
LINE
  5
E9
330
2
100
AcDbEntity
  8
CUA
100
AcDbLine
 10
1321347.912627377
 20
259376.7494328584
 30
0.0
 11
1319452.551357061
 21
259376.5996237454
 31
0.0
  0
LINE
  5
EA
330
2
100
AcDbEntity
  8
CUA
100
AcDbLine
 10
1321347.865319365
 20
259975.2845709155
 30
0.0
 11
1320051.039186948
 21
259975.1820698691
 31
0.0
  0
LINE
  5
EB
330
2
100
AcDbEntity
  8
TUONG
100
AcDbLine
 10
1341267.510127017
 20
260710.6790975717
 30
0.0
 11
1341067.510127017
 21
260710.6632895708
 31
0.0
  0
LINE
  5
EC
330
2
100
AcDbEntity
  8
CUA
100
AcDbLine
 10
1321347.912627377
 20
259376.7494328584
 30
0.0
 11
1321347.865319365
 21
259975.2845709155
 31
0.0
  0
LINE
  5
ED
330
2
100
AcDbEntity
  8
CUA
100
AcDbLine
 10
1321347.472218643
 20
264948.731738882
 30
0.0
 11
1321347.424910499
 21
265547.2668769407
 31
0.0
  0
ARC
  5
EE
330
2
100
AcDbEntity
  8
CUA
100
AcDbCircle
 10
1322229.499346464
 20
264948.7987587841
 30
0.0
 40
698.290996442583
100
AcDbArc
 50
225.0045286582703
 51
315.0045286578281
  0
LINE
  5
EF
330
2
100
AcDbEntity
  8
CUA
100
AcDbLine
 10
1322229.499346464
 20
264948.7987587841
 30
0.0
 11
1322723.304670921
 21
264455.0714887503
 31
0.0
  0
ARC
  5
F0
330
2
100
AcDbEntity
  8
CUA
100
AcDbCircle
 10
1322229.609732148
 20
263552.2167700421
 30
0.0
 40
698.2909964425831
100
AcDbArc
 50
45.00452873609217
 51
135.0045287497994
  0
LINE
  5
F1
330
2
100
AcDbEntity
  8
CUA
100
AcDbLine
 10
1322229.609732148
 20
263552.2167700421
 30
0.0
 11
1321735.804406855
 21
264045.9440393432
 31
0.0
  0
LINE
  5
F2
330
2
100
AcDbEntity
  8
TUONG
100
AcDbLine
 10
1322279.377274626
 20
264948.8027011289
 30
0.0
 11
1322179.621418301
 21
264948.7948164394
 31
0.0
  0
LINE
  5
F3
330
2
100
AcDbEntity
  8
TUONG
100
AcDbLine
 10
1322279.487660298
 20
263552.2207124136
 30
0.0
 11
1322179.731803998
 21
263552.2128277252
 31
0.0
  0
LINE
  5
F4
330
2
100
AcDbEntity
  8
TUONG
100
AcDbLine
 10
1341067.510127017
 20
260710.6632895708
 30
0.0
 11
1334647.510127017
 21
260710.6632895713
 31
0.0
  0
LINE
  5
F5
330
2
100
AcDbEntity
  8
TUONG
100
AcDbLine
 10
1334647.510127017
 20
256490.6632898677
 30
0.0
 11
1334647.510127017
 21
260710.6632895713
 31
0.0
  0
LINE
  5
F6
330
2
100
AcDbEntity
  8
TUONG
100
AcDbLine
 10
1336957.510127017
 20
257790.4191468026
 30
0.0
 11
1336957.510127017
 21
260610.6632895708
 31
0.0
  0
LINE
  5
F7
330
2
100
AcDbEntity
  8
TUONG
100
AcDbLine
 10
1337957.510127017
 20
259210.6632895707
 30
0.0
 11
1337957.510127017
 21
260610.6632895708
 31
0.0
  0
LINE
  5
F8
330
2
100
AcDbEntity
  8
TUONG
100
AcDbLine
 10
1338057.510127017
 20
259210.6632895708
 30
0.0
 11
1338057.510127017
 21
260610.6632895708
 31
0.0
  0
LINE
  5
F9
330
2
100
AcDbEntity
  8
TUONG
100
AcDbLine
 10
1338957.510127018
 20
259210.6632895709
 30
0.0
 11
1338957.510127017
 21
260610.6632895708
 31
0.0
  0
LINE
  5
FA
330
2
100
AcDbEntity
  8
TUONG
100
AcDbLine
 10
1339057.510127017
 20
259110.6632895709
 30
0.0
 11
1339057.510127017
 21
260610.6632895708
 31
0.0
  0
LINE
  5
FB
330
2
100
AcDbEntity
  8
TUONG
100
AcDbLine
 10
1337657.510127017
 20
257790.4191468026
 30
0.0
 11
1337657.510127017
 21
258390.4744768919
 31
0.0
  0
LINE
  5
FC
330
2
100
AcDbEntity
  8
TUONG
100
AcDbLine
 10
1337697.510127017
 20
257790.4191468026
 30
0.0
 11
1337697.510127017
 21
258390.4776384864
 31
0.0
  0
LINE
  5
FD
330
2
100
AcDbEntity
  8
TUONG
100
AcDbLine
 10
1336857.510127017
 20
257690.655652681
 30
0.0
 11
1336857.510127017
 21
260610.6632895708
 31
0.0
  0
INSERT
  5
FE
330
2
100
AcDbEntity
  8
NET THAY
100
AcDbBlockReference
  2
DOOR1T
 10
1338868.37681579
 20
257591.3225544077
 30
0.0
 41
700.505229390692
 42
700.505229390692
 43
700.5052293906806
 50
270.0
  0
LINE
  5
117
330
2
100
AcDbEntity
  8
TUONG
100
AcDbLine
 10
1338868.37681579
 20
256891.4218382398
 30
0.0
 11
1338968.132672115
 21
256891.4297229444
 31
0.0
  0
LINE
  5
118
330
2
100
AcDbEntity
  8
TUONG
100
AcDbLine
 10
1338967.510126398
 20
256490.6711184937
 30
0.0
 11
1338967.478450375
 21
256891.429671235
 31
0.0
  0
LINE
  5
119
330
2
100
AcDbEntity
  8
TUONG
100
AcDbLine
 10
1340239.207025324
 20
256490.6632898679
 30
0.0
 11
1340239.207025324
 21
256290.6632898679
 31
0.0
  0
LINE
  5
11A
330
2
100
AcDbEntity
  8
TUONG
100
AcDbLine
 10
1319751.975617152
 20
257394.1917120459
 30
0.0
 11
1319751.991425125
 21
257194.1917126673
 31
0.0
  0
LINE
  5
11B
330
2
100
AcDbEntity
  8
TUONG
100
AcDbLine
 10
1320450.266611479
 20
257394.2469048501
 30
0.0
 11
1320450.282419452
 21
257194.2469054932
 31
0.0
  0
INSERT
  5
11C
330
2
100
AcDbEntity
  8
NET THAY
100
AcDbBlockReference
  2
DOOR1T
 10
1340967.510127017
 20
257790.7440006319
 30
0.0
 41
700.505229390692
 42
700.505229390692
 43
700.5052293906806
 50
180.0
  0
LINE
  5
11D
330
2
100
AcDbEntity
  8
CUA
100
AcDbLine
 10
1324354.928759086
 20
265608.1632895708
 30
0.0
 11
1324354.668353674
 21
268902.7669721023
 31
0.0
  0
LINE
  5
11E
330
2
100
AcDbEntity
  8
CUA
100
AcDbLine
 10
1324304.928759242
 20
265608.1593375717
 30
0.0
 11
1324304.668305082
 21
268903.3797725976
 31
0.0
  0
LINE
  5
11F
330
2
100
AcDbEntity
  8
CUA
100
AcDbLine
 10
1324354.928759086
 20
265608.1632895708
 30
0.0
 11
1324304.928759242
 21
265608.1593375717
 31
0.0
  0
LWPOLYLINE
  5
120
330
2
100
AcDbEntity
  8
KICHTHUOC
 48
5.0
100
AcDbPolyline
 90
        4
 70
     1
 43
0.0
 10
1322180.010127017
 20
256490.6632898679
 10
1322180.010127017
 20
256290.6632898679
 10
1322380.010127017
 20
256290.6632898679
 10
1322380.010127017
 20
256490.6632898679
  0
SOLID
  5
121
330
2
100
AcDbEntity
  8
KICHTHUOC
 48
5.0
100
AcDbTrace
 10
1322380.010127017
 20
256490.6632898679
 30
0.0
 11
1322380.010127017
 21
256290.6632898679
 31
0.0
 12
1322180.010127017
 22
256490.6632898679
 32
0.0
 13
1322180.010127017
 23
256290.6632898679
 33
0.0
  0
TEXT
  5
122
330
2
100
AcDbEntity
  8
TEXT
 48
5.0
100
AcDbText
 10
1335393.406888911
 20
258019.2817203447
 30
0.0
 40
194.9999993907656
  1
WC NÖÕ
 50
1.412783226521695
  7
a 1
100
AcDbText
  0
LINE
  5
123
330
2
100
AcDbEntity
  8
KICHTHUOC
 48
5.0
100
AcDbLine
 10
1322380.010127017
 20
256290.6632898679
 30
0.0
 11
1322180.010127017
 21
256490.6632898679
 31
0.0
  0
LWPOLYLINE
  5
124
330
2
100
AcDbEntity
  8
KICHTHUOC
 48
5.0
100
AcDbPolyline
 90
        4
 70
     1
 43
0.0
 10
1322180.010127017
 20
260810.663289571
 10
1322180.010127017
 20
260610.663289571
 10
1322380.010127017
 20
260610.663289571
 10
1322380.010127017
 20
260810.663289571
  0
SOLID
  5
125
330
2
100
AcDbEntity
  8
KICHTHUOC
 48
5.0
100
AcDbTrace
 10
1322380.010127017
 20
260810.663289571
 30
0.0
 11
1322380.010127017
 21
260610.663289571
 31
0.0
 12
1322180.010127017
 22
260810.663289571
 32
0.0
 13
1322180.010127017
 23
260610.663289571
 33
0.0
  0
LINE
  5
126
330
2
100
AcDbEntity
  8
KICHTHUOC
 48
5.0
100
AcDbLine
 10
1322380.010127017
 20
260610.663289571
 30
0.0
 11
1322180.010127017
 21
260810.663289571
 31
0.0
  0
LWPOLYLINE
  5
127
330
2
100
AcDbEntity
  8
KICHTHUOC
 48
5.0
100
AcDbPolyline
 90
        4
 70
     1
 43
0.0
 10
1322180.010127018
 20
265708.1632895712
 10
1322180.010127018
 20
265508.1632895713
 10
1322380.010127018
 20
265508.1632895713
 10
1322380.010127018
 20
265708.1632895712
  0
SOLID
  5
128
330
2
100
AcDbEntity
  8
KICHTHUOC
 48
5.0
100
AcDbTrace
 10
1322380.010127018
 20
265708.1632895712
 30
0.0
 11
1322380.010127018
 21
265508.1632895713
 31
0.0
 12
1322180.010127018
 22
265708.1632895712
 32
0.0
 13
1322180.010127018
 23
265508.1632895713
 33
0.0
  0
LINE
  5
129
330
2
100
AcDbEntity
  8
KICHTHUOC
 48
5.0
100
AcDbLine
 10
1322380.010127018
 20
265508.1632895713
 30
0.0
 11
1322180.010127018
 21
265708.1632895712
 31
0.0
  0
LWPOLYLINE
  5
12A
330
2
100
AcDbEntity
  8
KICHTHUOC
 48
5.0
100
AcDbPolyline
 90
        4
 70
     1
 43
0.0
 10
1326500.010127017
 20
256490.6632898679
 10
1326500.010127017
 20
256290.6632898679
 10
1326700.010127017
 20
256290.6632898679
 10
1326700.010127017
 20
256490.6632898679
  0
SOLID
  5
12B
330
2
100
AcDbEntity
  8
KICHTHUOC
 48
5.0
100
AcDbTrace
 10
1326700.010127017
 20
256490.6632898679
 30
0.0
 11
1326700.010127017
 21
256290.6632898679
 31
0.0
 12
1326500.010127017
 22
256490.6632898679
 32
0.0
 13
1326500.010127017
 23
256290.6632898679
 33
0.0
  0
LINE
  5
12C
330
2
100
AcDbEntity
  8
KICHTHUOC
 48
5.0
100
AcDbLine
 10
1326700.010127017
 20
256290.6632898679
 30
0.0
 11
1326500.010127017
 21
256490.6632898679
 31
0.0
  0
LWPOLYLINE
  5
12D
330
2
100
AcDbEntity
  8
KICHTHUOC
 48
5.0
100
AcDbPolyline
 90
        4
 70
     1
 43
0.0
 10
1326500.010127017
 20
260810.663289571
 10
1326500.010127017
 20
260610.663289571
 10
1326700.010127017
 20
260610.663289571
 10
1326700.010127017
 20
260810.663289571
  0
SOLID
  5
12E
330
2
100
AcDbEntity
  8
KICHTHUOC
 48
5.0
100
AcDbTrace
 10
1326700.010127017
 20
260810.663289571
 30
0.0
 11
1326700.010127017
 21
260610.663289571
 31
0.0
 12
1326500.010127017
 22
260810.663289571
 32
0.0
 13
1326500.010127017
 23
260610.663289571
 33
0.0
  0
LINE
  5
12F
330
2
100
AcDbEntity
  8
KICHTHUOC
 48
5.0
100
AcDbLine
 10
1326700.010127017
 20
260610.663289571
 30
0.0
 11
1326500.010127017
 21
260810.663289571
 31
0.0
  0
LWPOLYLINE
  5
130
330
2
100
AcDbEntity
  8
KICHTHUOC
 48
5.0
100
AcDbPolyline
 90
        4
 70
     1
 43
0.0
 10
1326500.010127017
 20
265708.1632895712
 10
1326500.010127017
 20
265508.1632895713
 10
1326700.010127017
 20
265508.1632895713
 10
1326700.010127017
 20
265708.1632895712
  0
SOLID
  5
131
330
2
100
AcDbEntity
  8
KICHTHUOC
 48
5.0
100
AcDbTrace
 10
1326700.010127017
 20
265708.1632895712
 30
0.0
 11
1326700.010127017
 21
265508.1632895713
 31
0.0
 12
1326500.010127017
 22
265708.1632895712
 32
0.0
 13
1326500.010127017
 23
265508.1632895713
 33
0.0
  0
LINE
  5
132
330
2
100
AcDbEntity
  8
KICHTHUOC
 48
5.0
100
AcDbLine
 10
1326700.010127017
 20
265508.1632895713
 30
0.0
 11
1326500.010127017
 21
265708.1632895712
 31
0.0
  0
LWPOLYLINE
  5
133
330
2
100
AcDbEntity
  8
KICHTHUOC
 48
5.0
100
AcDbPolyline
 90
        4
 70
     1
 43
0.0
 10
1331960.010127017
 20
256490.6632898677
 10
1331960.010127017
 20
256290.6632898676
 10
1332160.010127017
 20
256290.6632898676
 10
1332160.010127017
 20
256490.6632898677
  0
SOLID
  5
134
330
2
100
AcDbEntity
  8
KICHTHUOC
 48
5.0
100
AcDbTrace
 10
1332160.010127017
 20
256490.6632898677
 30
0.0
 11
1332160.010127017
 21
256290.6632898676
 31
0.0
 12
1331960.010127017
 22
256490.6632898677
 32
0.0
 13
1331960.010127017
 23
256290.6632898676
 33
0.0
  0
LINE
  5
135
330
2
100
AcDbEntity
  8
KICHTHUOC
 48
5.0
100
AcDbLine
 10
1332160.010127017
 20
256290.6632898676
 30
0.0
 11
1331960.010127017
 21
256490.6632898677
 31
0.0
  0
LWPOLYLINE
  5
136
330
2
100
AcDbEntity
  8
KICHTHUOC
 48
5.0
100
AcDbPolyline
 90
        4
 70
     1
 43
0.0
 10
1331960.010127017
 20
260810.6632895708
 10
1331960.010127017
 20
260610.6632895708
 10
1332160.010127017
 20
260610.6632895708
 10
1332160.010127017
 20
260810.6632895708
  0
SOLID
  5
137
330
2
100
AcDbEntity
  8
KICHTHUOC
 48
5.0
100
AcDbTrace
 10
1332160.010127017
 20
260810.6632895708
 30
0.0
 11
1332160.010127017
 21
260610.6632895708
 31
0.0
 12
1331960.010127017
 22
260810.6632895708
 32
0.0
 13
1331960.010127017
 23
260610.6632895708
 33
0.0
  0
LINE
  5
138
330
2
100
AcDbEntity
  8
KICHTHUOC
 48
5.0
100
AcDbLine
 10
1332160.010127017
 20
260610.6632895708
 30
0.0
 11
1331960.010127017
 21
260810.6632895708
 31
0.0
  0
LWPOLYLINE
  5
139
330
2
100
AcDbEntity
  8
KICHTHUOC
 48
5.0
100
AcDbPolyline
 90
        4
 70
     1
 43
0.0
 10
1331960.010127017
 20
265708.163289571
 10
1331960.010127017
 20
265508.163289571
 10
1332160.010127017
 20
265508.163289571
 10
1332160.010127017
 20
265708.163289571
  0
SOLID
  5
13A
330
2
100
AcDbEntity
  8
KICHTHUOC
 48
5.0
100
AcDbTrace
 10
1332160.010127017
 20
265708.163289571
 30
0.0
 11
1332160.010127017
 21
265508.163289571
 31
0.0
 12
1331960.010127017
 22
265708.163289571
 32
0.0
 13
1331960.010127017
 23
265508.163289571
 33
0.0
  0
LINE
  5
13B
330
2
100
AcDbEntity
  8
KICHTHUOC
 48
5.0
100
AcDbLine
 10
1332160.010127017
 20
265508.163289571
 30
0.0
 11
1331960.010127017
 21
265708.163289571
 31
0.0
  0
LWPOLYLINE
  5
13C
330
2
100
AcDbEntity
  8
KICHTHUOC
 48
5.0
100
AcDbPolyline
 90
        4
 70
     1
 43
0.0
 10
1336857.510127017
 20
256490.6632898679
 10
1336857.510127017
 20
256290.6632898679
 10
1337057.510127017
 20
256290.6632898679
 10
1337057.510127017
 20
256490.6632898679
  0
SOLID
  5
13D
330
2
100
AcDbEntity
  8
KICHTHUOC
 48
5.0
100
AcDbTrace
 10
1337057.510127017
 20
256490.6632898679
 30
0.0
 11
1337057.510127017
 21
256290.6632898679
 31
0.0
 12
1336857.510127017
 22
256490.6632898679
 32
0.0
 13
1336857.510127017
 23
256290.6632898679
 33
0.0
  0
LINE
  5
13E
330
2
100
AcDbEntity
  8
KICHTHUOC
 48
5.0
100
AcDbLine
 10
1337057.510127017
 20
256290.6632898679
 30
0.0
 11
1336857.510127017
 21
256490.6632898679
 31
0.0
  0
LWPOLYLINE
  5
13F
330
2
100
AcDbEntity
  8
KICHTHUOC
 48
5.0
100
AcDbPolyline
 90
        4
 70
     1
 43
0.0
 10
1336857.510127017
 20
260810.663289571
 10
1336857.510127017
 20
260610.663289571
 10
1337057.510127017
 20
260610.663289571
 10
1337057.510127017
 20
260810.663289571
  0
SOLID
  5
140
330
2
100
AcDbEntity
  8
KICHTHUOC
 48
5.0
100
AcDbTrace
 10
1337057.510127017
 20
260810.663289571
 30
0.0
 11
1337057.510127017
 21
260610.663289571
 31
0.0
 12
1336857.510127017
 22
260810.663289571
 32
0.0
 13
1336857.510127017
 23
260610.663289571
 33
0.0
  0
LINE
  5
141
330
2
100
AcDbEntity
  8
KICHTHUOC
 48
5.0
100
AcDbLine
 10
1337057.510127017
 20
260610.663289571
 30
0.0
 11
1336857.510127017
 21
260810.663289571
 31
0.0
  0
LWPOLYLINE
  5
142
330
2
100
AcDbEntity
  8
KICHTHUOC
 48
5.0
100
AcDbPolyline
 90
        4
 70
     1
 43
0.0
 10
1336857.510127018
 20
265708.1632895712
 10
1336857.510127018
 20
265508.1632895713
 10
1337057.510127017
 20
265508.1632895713
 10
1337057.510127017
 20
265708.1632895712
  0
SOLID
  5
143
330
2
100
AcDbEntity
  8
KICHTHUOC
 48
5.0
100
AcDbTrace
 10
1337057.510127017
 20
265708.1632895712
 30
0.0
 11
1337057.510127017
 21
265508.1632895713
 31
0.0
 12
1336857.510127018
 22
265708.1632895712
 32
0.0
 13
1336857.510127018
 23
265508.1632895713
 33
0.0
  0
LINE
  5
144
330
2
100
AcDbEntity
  8
KICHTHUOC
 48
5.0
100
AcDbLine
 10
1337057.510127017
 20
265508.1632895713
 30
0.0
 11
1336857.510127018
 21
265708.1632895712
 31
0.0
  0
LWPOLYLINE
  5
145
330
2
100
AcDbEntity
  8
KICHTHUOC
 48
5.0
100
AcDbPolyline
 90
        4
 70
     1
 43
0.0
 10
1341067.510127017
 20
256490.6632898679
 10
1341067.510127017
 20
256290.6632898679
 10
1341267.510127017
 20
256290.6632898679
 10
1341267.510127017
 20
256490.6632898679
  0
SOLID
  5
146
330
2
100
AcDbEntity
  8
KICHTHUOC
 48
5.0
100
AcDbTrace
 10
1341267.510127017
 20
256490.6632898679
 30
0.0
 11
1341267.510127017
 21
256290.6632898679
 31
0.0
 12
1341067.510127017
 22
256490.6632898679
 32
0.0
 13
1341067.510127017
 23
256290.6632898679
 33
0.0
  0
LINE
  5
147
330
2
100
AcDbEntity
  8
KICHTHUOC
 48
5.0
100
AcDbLine
 10
1341267.510127017
 20
256290.6632898679
 30
0.0
 11
1341067.510127017
 21
256490.6632898679
 31
0.0
  0
LWPOLYLINE
  5
148
330
2
100
AcDbEntity
  8
KICHTHUOC
 48
5.0
100
AcDbPolyline
 90
        4
 70
     1
 43
0.0
 10
1341067.510127017
 20
260810.663289571
 10
1341067.510127017
 20
260610.663289571
 10
1341267.510127017
 20
260610.663289571
 10
1341267.510127017
 20
260810.663289571
  0
SOLID
  5
149
330
2
100
AcDbEntity
  8
KICHTHUOC
 48
5.0
100
AcDbTrace
 10
1341267.510127017
 20
260810.663289571
 30
0.0
 11
1341267.510127017
 21
260610.663289571
 31
0.0
 12
1341067.510127017
 22
260810.663289571
 32
0.0
 13
1341067.510127017
 23
260610.663289571
 33
0.0
  0
LINE
  5
14A
330
2
100
AcDbEntity
  8
KICHTHUOC
 48
5.0
100
AcDbLine
 10
1341267.510127017
 20
260610.663289571
 30
0.0
 11
1341067.510127017
 21
260810.663289571
 31
0.0
  0
LWPOLYLINE
  5
14B
330
2
100
AcDbEntity
  8
KICHTHUOC
 48
5.0
100
AcDbPolyline
 90
        4
 70
     1
 43
0.0
 10
1341067.510127017
 20
265708.1632895712
 10
1341067.510127017
 20
265508.1632895713
 10
1341267.510127017
 20
265508.1632895713
 10
1341267.510127017
 20
265708.1632895712
  0
SOLID
  5
14C
330
2
100
AcDbEntity
  8
KICHTHUOC
 48
5.0
100
AcDbTrace
 10
1341267.510127017
 20
265708.1632895712
 30
0.0
 11
1341267.510127017
 21
265508.1632895713
 31
0.0
 12
1341067.510127017
 22
265708.1632895712
 32
0.0
 13
1341067.510127017
 23
265508.1632895713
 33
0.0
  0
LINE
  5
14D
330
2
100
AcDbEntity
  8
KICHTHUOC
 48
5.0
100
AcDbLine
 10
1341267.510127017
 20
265508.1632895713
 30
0.0
 11
1341067.510127017
 21
265708.1632895712
 31
0.0
  0
LWPOLYLINE
  5
14E
330
2
100
AcDbEntity
  8
KICHTHUOC
 48
5.0
100
AcDbPolyline
 90
        4
 70
     1
 43
0.0
 10
1319252.925516013
 20
256490.4319334674
 10
1319252.925516013
 20
256290.4319334674
 10
1319452.925516012
 20
256290.4319334674
 10
1319452.925516012
 20
256490.4319334674
  0
SOLID
  5
14F
330
2
100
AcDbEntity
  8
KICHTHUOC
 48
5.0
100
AcDbTrace
 10
1319452.925516012
 20
256490.4319334674
 30
0.0
 11
1319452.925516012
 21
256290.4319334674
 31
0.0
 12
1319252.925516013
 22
256490.4319334674
 32
0.0
 13
1319252.925516013
 23
256290.4319334674
 33
0.0
  0
LINE
  5
150
330
2
100
AcDbEntity
  8
KICHTHUOC
 48
5.0
100
AcDbLine
 10
1319452.925516012
 20
256290.4319334674
 30
0.0
 11
1319252.925516013
 21
256490.4319334674
 31
0.0
  0
LWPOLYLINE
  5
151
330
2
100
AcDbEntity
  8
KICHTHUOC
 48
5.0
100
AcDbPolyline
 90
        4
 70
     1
 43
0.0
 10
1319252.925516013
 20
265707.9319331707
 10
1319252.925516013
 20
265507.9319331707
 10
1319452.925516013
 20
265507.9319331707
 10
1319452.925516013
 20
265707.9319331707
  0
SOLID
  5
152
330
2
100
AcDbEntity
  8
KICHTHUOC
 48
5.0
100
AcDbTrace
 10
1319452.925516013
 20
265707.9319331707
 30
0.0
 11
1319452.925516013
 21
265507.9319331707
 31
0.0
 12
1319252.925516013
 22
265707.9319331707
 32
0.0
 13
1319252.925516013
 23
265507.9319331707
 33
0.0
  0
LINE
  5
153
330
2
100
AcDbEntity
  8
KICHTHUOC
 48
5.0
100
AcDbLine
 10
1319452.925516013
 20
265507.9319331707
 30
0.0
 11
1319252.925516013
 21
265707.9319331707
 31
0.0
  0
LWPOLYLINE
  5
154
330
2
100
AcDbEntity
  8
KICHTHUOC
 48
5.0
100
AcDbPolyline
 90
        4
 70
     1
 43
0.0
 10
1319252.257242947
 20
269165.3171321995
 10
1319252.257242947
 20
268965.3171321995
 10
1319452.257242946
 20
268965.3171321995
 10
1319452.257242946
 20
269165.3171321995
  0
SOLID
  5
155
330
2
100
AcDbEntity
  8
KICHTHUOC
 48
5.0
100
AcDbTrace
 10
1319452.257242946
 20
269165.3171321995
 30
0.0
 11
1319452.257242946
 21
268965.3171321995
 31
0.0
 12
1319252.257242947
 22
269165.3171321995
 32
0.0
 13
1319252.257242947
 23
268965.3171321995
 33
0.0
  0
LINE
  5
156
330
2
100
AcDbEntity
  8
KICHTHUOC
 48
5.0
100
AcDbLine
 10
1319452.257242946
 20
268965.3171321995
 30
0.0
 11
1319252.257242947
 21
269165.3171321995
 31
0.0
  0
LWPOLYLINE
  5
157
330
2
100
AcDbEntity
  8
KICHTHUOC
 48
5.0
100
AcDbPolyline
 90
        4
 70
     1
 43
0.0
 10
1322179.306829941
 20
269128.9173991741
 10
1322179.306829941
 20
268928.9173991741
 10
1322379.306829941
 20
268928.9173991741
 10
1322379.306829941
 20
269128.9173991741
  0
SOLID
  5
158
330
2
100
AcDbEntity
  8
KICHTHUOC
 48
5.0
100
AcDbTrace
 10
1322379.306829941
 20
269128.9173991741
 30
0.0
 11
1322379.306829941
 21
268928.9173991741
 31
0.0
 12
1322179.306829941
 22
269128.9173991741
 32
0.0
 13
1322179.306829941
 23
268928.9173991741
 33
0.0
  0
LINE
  5
159
330
2
100
AcDbEntity
  8
KICHTHUOC
 48
5.0
100
AcDbLine
 10
1322379.306829941
 20
268928.9173991741
 30
0.0
 11
1322179.306829941
 21
269128.9173991741
 31
0.0
  0
LWPOLYLINE
  5
15A
330
2
100
AcDbEntity
  8
KICHTHUOC
 48
5.0
100
AcDbPolyline
 90
        4
 70
     1
 43
0.0
 10
1326541.256078913
 20
269073.5319774717
 10
1326541.256078913
 20
268873.5319774718
 10
1326741.256078913
 20
268873.5319774718
 10
1326741.256078913
 20
269073.5319774717
  0
SOLID
  5
15B
330
2
100
AcDbEntity
  8
KICHTHUOC
 48
5.0
100
AcDbTrace
 10
1326741.256078913
 20
269073.5319774717
 30
0.0
 11
1326741.256078913
 21
268873.5319774718
 31
0.0
 12
1326541.256078913
 22
269073.5319774717
 32
0.0
 13
1326541.256078913
 23
268873.5319774718
 33
0.0
  0
LINE
  5
15C
330
2
100
AcDbEntity
  8
KICHTHUOC
 48
5.0
100
AcDbLine
 10
1326741.256078913
 20
268873.5319774718
 30
0.0
 11
1326541.256078913
 21
269073.5319774717
 31
0.0
  0
LWPOLYLINE
  5
15D
330
2
100
AcDbEntity
  8
KICHTHUOC
 48
5.0
100
AcDbPolyline
 90
        4
 70
     1
 43
0.0
 10
1331960.010127017
 20
269008.3784950712
 10
1331960.010127017
 20
268808.3784950712
 10
1332160.010127017
 20
268808.3784950712
 10
1332160.010127017
 20
269008.3784950712
  0
SOLID
  5
15E
330
2
100
AcDbEntity
  8
KICHTHUOC
 48
5.0
100
AcDbTrace
 10
1332160.010127017
 20
269008.3784950712
 30
0.0
 11
1332160.010127017
 21
268808.3784950712
 31
0.0
 12
1331960.010127017
 22
269008.3784950712
 32
0.0
 13
1331960.010127017
 23
268808.3784950712
 33
0.0
  0
LINE
  5
15F
330
2
100
AcDbEntity
  8
KICHTHUOC
 48
5.0
100
AcDbLine
 10
1332160.010127017
 20
268808.3784950712
 30
0.0
 11
1331960.010127017
 21
269008.3784950712
 31
0.0
  0
LWPOLYLINE
  5
160
330
2
100
AcDbEntity
  8
KICHTHUOC
 48
5.0
100
AcDbPolyline
 90
        4
 70
     1
 43
0.0
 10
1336897.215536505
 20
268947.8349589098
 10
1336897.215536505
 20
268747.8349589099
 10
1337097.215536505
 20
268747.8349589099
 10
1337097.215536505
 20
268947.8349589098
  0
SOLID
  5
161
330
2
100
AcDbEntity
  8
KICHTHUOC
 48
5.0
100
AcDbTrace
 10
1337097.215536505
 20
268947.8349589098
 30
0.0
 11
1337097.215536505
 21
268747.8349589099
 31
0.0
 12
1336897.215536505
 22
268947.8349589098
 32
0.0
 13
1336897.215536505
 23
268747.8349589099
 33
0.0
  0
LINE
  5
162
330
2
100
AcDbEntity
  8
KICHTHUOC
 48
5.0
100
AcDbLine
 10
1337097.215536505
 20
268747.8349589099
 30
0.0
 11
1336897.215536505
 21
268947.8349589098
 31
0.0
  0
LINE
  5
163
330
2
100
AcDbEntity
  8
TUONG
100
AcDbLine
 10
1341266.839229523
 20
268796.7396061726
 30
0.0
 11
1341067.327516872
 21
268796.7238367641
 31
0.0
  0
LWPOLYLINE
  5
164
330
2
100
AcDbEntity
  8
KICHTHUOC
 48
5.0
100
AcDbPolyline
 90
        4
 70
     1
 43
0.0
 10
1341067.510127017
 20
268896.7238367648
 10
1341067.510127017
 20
268696.7238367648
 10
1341267.510127017
 20
268696.7238367648
 10
1341267.510127017
 20
268896.7238367648
  0
SOLID
  5
165
330
2
100
AcDbEntity
  8
KICHTHUOC
 48
5.0
100
AcDbTrace
 10
1341267.510127017
 20
268896.7238367648
 30
0.0
 11
1341267.510127017
 21
268696.7238367648
 31
0.0
 12
1341067.510127017
 22
268896.7238367648
 32
0.0
 13
1341067.510127017
 23
268696.7238367648
 33
0.0
  0
LINE
  5
166
330
2
100
AcDbEntity
  8
KICHTHUOC
 48
5.0
100
AcDbLine
 10
1341267.510127017
 20
268696.7238367648
 30
0.0
 11
1341067.510127017
 21
268896.7238367648
 31
0.0
  0
LWPOLYLINE
  5
167
330
2
100
AcDbEntity
  8
DIM-WC
100
AcDbPolyline
 90
        6
 70
     0
 43
0.0
 10
1343735.314064526
 20
255142.4286338178
 10
1330711.820298186
 20
255142.4286338178
 10
1330711.820298186
 20
254853.1114709432
 10
1329928.732102123
 20
255460.3103421969
 10
1329928.732102123
 20
255141.6380678882
 10
1318394.364012477
 20
255141.6380678882
  0
LINE
  5
16C
330
2
100
AcDbEntity
  8
tim 08
 48
5.0
100
AcDbLine
 10
1343652.013863444
 20
256390.6632898677
 30
0.0
 11
1321338.179508189
 21
256390.6632898677
 31
0.0
  0
LINE
  5
16D
330
2
100
AcDbEntity
  8
cat m
 48
3.0
100
AcDbLine
 10
1342968.816300366
 20
262000.144740578
 30
0.0
 11
1343638.424459267
 21
262000.144740578
 31
0.0
  0
MTEXT
  5
172
330
2
100
AcDbEntity
  8
CHU
100
AcDbMText
 10
1343152.711418091
 20
262443.0588138594
 30
0.0
 40
325.0
 41
360.21713
 71
     1
 72
     5
  1
{\C7;A}
  7
700
 73
     1
 44
1.0
  0
LWPOLYLINE
  5
178
330
2
100
AcDbEntity
  8
NETTHAY
 48
5.0
100
AcDbPolyline
 90
        2
 70
     0
 43
50.0
 10
1342972.292847938
 20
262000.144740578
 10
1343641.901006839
 20
262000.144740578
  0
LINE
  5
17D
330
2
100
AcDbEntity
  8
tim 08
 48
5.0
100
AcDbLine
 10
1319352.925516012
 20
252833.504337628
 30
0.0
 11
1319352.925516012
 21
269905.4337362203
 31
0.0
  0
INSERT
  5
17E
330
2
100
AcDbEntity
  8
CUA
100
AcDbBlockReference
  2
cot
 10
-10300768.51823132
 20
-39308027.96973689
 30
0.0
 41
499.9999984420387
 42
499.9999984502792
 43
499.9999984378606
 50
359.9288079435702
  0
TEXT
  5
17F
330
2
100
AcDbEntity
  8
TEXT
 48
5.0
100
AcDbText
 10
1337950.960886768
 20
264471.3367851912
 30
0.0
 40
194.9999993907656
  1
0,000
 50
359.9288079461347
  7
a 1
100
AcDbText
  0
INSERT
  5
180
330
2
100
AcDbEntity
  8
Layer1
100
AcDbBlockReference
  2
LAVABO
 10
1334730.616078374
 20
257093.1088068303
 30
0.0
 41
-0.9102769866907618
 42
0.9102769857272505
 43
0.9102769868837137
 50
86.35698177744801
  0
INSERT
  5
1C7
330
2
100
AcDbEntity
  8
Layer1
100
AcDbBlockReference
  2
TIEUTRE
 10
1337307.32738626
 20
257788.1524247807
 30
0.0
 41
-1.0
 50
180.2152753892743
  0
INSERT
  5
20B
330
2
100
AcDbEntity
  8
Layer1
100
AcDbBlockReference
  2
LAVABO
 10
1334723.531655738
 20
257820.8692831432
 30
0.0
 41
-0.9102769866907618
 42
0.9102769857272505
 43
0.9102769868837137
 50
86.35698177744801
  0
LINE
  5
20C
330
2
100
AcDbEntity
  8
TUONG
100
AcDbLine
 10
1335802.510127017
 20
260610.6632895706
 30
0.0
 11
1335802.510127017
 21
258910.6632895707
 31
0.0
  0
LINE
  5
20D
330
2
100
AcDbEntity
  8
TUONG
100
AcDbLine
 10
1335902.510127017
 20
260610.6632895706
 30
0.0
 11
1335902.510127017
 21
258910.6632895707
 31
0.0
  0
LINE
  5
20E
330
2
100
AcDbEntity
  8
CUA
 48
5.0
100
AcDbLine
 10
1334747.510127017
 20
258266.9111839736
 30
0.0
 11
1335047.510127017
 21
258266.9111839736
 31
0.0
  0
LINE
  5
20F
330
2
100
AcDbEntity
  8
CUA
 48
5.0
100
AcDbLine
 10
1335047.510127017
 20
258266.9111839736
 30
0.0
 11
1335347.510127017
 21
257908.9824235303
 31
0.0
  0
INSERT
  5
210
330
2
100
AcDbEntity
  8
NET THAY
100
AcDbBlockReference
  2
DOOR1T
 10
1335702.510127017
 20
258910.6632895705
 30
0.0
 41
700.505229390692
 42
700.505229390692
 43
700.5052293906806
 50
180.0
  0
LINE
  5
211
330
2
100
AcDbEntity
  8
TUONG
100
AcDbLine
 10
1335702.510127017
 20
258910.6632895705
 30
0.0
 11
1335702.510127017
 21
258810.6632895705
 31
0.0
  0
LINE
  5
212
330
2
100
AcDbEntity
  8
TUONG
100
AcDbLine
 10
1335003.281006255
 20
258910.6632895706
 30
0.0
 11
1335003.281006255
 21
258810.6632895705
 31
0.0
  0
INSERT
  5
213
330
2
100
AcDbEntity
  8
NET THAY
100
AcDbBlockReference
  2
DOOR1T
 10
1336008.580332838
 20
258910.6632895707
 30
0.0
 41
-700.505229390692
 42
700.505229390692
 43
700.5052293906806
 50
180.0
  0
LINE
  5
214
330
2
100
AcDbEntity
  8
TUONG
100
AcDbLine
 10
1336008.580332838
 20
258910.6632895707
 30
0.0
 11
1336008.580332838
 21
258810.6632895707
 31
0.0
  0
LINE
  5
215
330
2
100
AcDbEntity
  8
TUONG
100
AcDbLine
 10
1336707.8094536
 20
258910.6632895708
 30
0.0
 11
1336707.8094536
 21
258810.6632895708
 31
0.0
  0
INSERT
  5
216
330
2
100
AcDbEntity
  8
Layer1
100
AcDbBlockReference
  2
XIBET1
 10
1336417.765599051
 20
260617.2842274591
 30
0.0
 41
-0.9102769872438775
 42
0.9102769875898957
 43
0.9102769868837137
 50
359.7803708566234
  0
INSERT
  5
2ED
330
2
100
AcDbEntity
  8
Layer1
100
AcDbBlockReference
  2
XIBET1
 10
1335274.7988897
 20
260617.2842274591
 30
0.0
 41
0.9102769870110485
 42
0.9102769875898957
 43
0.9102769868837137
 50
0.2196291434327287
  0
INSERT
  5
2EE
330
2
100
AcDbEntity
  8
Layer1
100
AcDbBlockReference
  2
LAVABO
 10
1341077.314002617
 20
260148.8703057324
 30
0.0
 41
0.9102769866907618
 42
0.9102769857272505
 43
0.9102769868837137
 50
273.643018222552
  0
INSERT
  5
2EF
330
2
100
AcDbEntity
  8
Layer1
100
AcDbBlockReference
  2
LAVABO
 10
1341077.314002617
 20
259411.7744411094
 30
0.0
 41
0.9102769866907618
 42
0.9102769857272505
 43
0.9102769868837137
 50
273.643018222552
  0
LINE
  5
2F0
330
2
100
AcDbEntity
  8
CUA
 48
5.0
100
AcDbLine
 10
1340767.510127017
 20
258893.190685048
 30
0.0
 11
1341067.510127017
 21
258893.190685048
 31
0.0
  0
LINE
  5
2F1
330
2
100
AcDbEntity
  8
CUA
 48
5.0
100
AcDbLine
 10
1340767.510127017
 20
258893.190685048
 30
0.0
 11
1340467.510127017
 21
259154.2452693537
 31
0.0
  0
LINE
  5
2F2
330
2
100
AcDbEntity
  8
TUONG
100
AcDbLine
 10
1338397.510127017
 20
258390.4744768918
 30
0.0
 11
1338437.510127017
 21
258390.4776384863
 31
0.0
  0
LINE
  5
2F3
330
2
100
AcDbEntity
  8
TUONG
100
AcDbLine
 10
1338397.510127017
 20
257790.4191468025
 30
0.0
 11
1338397.510127017
 21
258390.4744768918
 31
0.0
  0
LINE
  5
2F4
330
2
100
AcDbEntity
  8
TUONG
100
AcDbLine
 10
1338437.510127017
 20
257790.4191468025
 30
0.0
 11
1338437.510127017
 21
258390.4776384863
 31
0.0
  0
INSERT
  5
2F5
330
2
100
AcDbEntity
  8
Layer1
100
AcDbBlockReference
  2
TIEUTRE
 10
1338047.32738626
 20
257788.1524247806
 30
0.0
 41
-1.0
 50
180.2152753892743
  0
LINE
  5
2F6
330
2
100
AcDbEntity
  8
TUONG
100
AcDbLine
 10
1339137.510127017
 20
258390.5914558864
 30
0.0
 11
1339177.510127017
 21
258390.5946174808
 31
0.0
  0
LINE
  5
2F7
330
2
100
AcDbEntity
  8
TUONG
100
AcDbLine
 10
1339137.510127017
 20
257790.536125797
 30
0.0
 11
1339137.510127017
 21
258390.5914558864
 31
0.0
  0
LINE
  5
2F8
330
2
100
AcDbEntity
  8
TUONG
100
AcDbLine
 10
1339177.510127017
 20
257790.536125797
 30
0.0
 11
1339177.510127017
 21
258390.5946174808
 31
0.0
  0
INSERT
  5
2F9
330
2
100
AcDbEntity
  8
Layer1
100
AcDbBlockReference
  2
TIEUTRE
 10
1338787.32738626
 20
257788.2694037751
 30
0.0
 41
-1.0
 50
180.2152753892743
  0
LINE
  5
2FA
330
2
100
AcDbEntity
  8
TUONG
100
AcDbLine
 10
1339877.510127017
 20
258390.6499453837
 30
0.0
 11
1339917.510127017
 21
258390.6531069781
 31
0.0
  0
LINE
  5
2FB
330
2
100
AcDbEntity
  8
TUONG
100
AcDbLine
 10
1339877.510127017
 20
257790.5946152943
 30
0.0
 11
1339877.510127017
 21
258390.6499453837
 31
0.0
  0
LINE
  5
2FC
330
2
100
AcDbEntity
  8
TUONG
100
AcDbLine
 10
1339917.510127017
 20
257790.5946152943
 30
0.0
 11
1339917.510127017
 21
258390.6531069781
 31
0.0
  0
INSERT
  5
2FD
330
2
100
AcDbEntity
  8
Layer1
100
AcDbBlockReference
  2
TIEUTRE
 10
1339527.32738626
 20
257788.3278932724
 30
0.0
 41
-1.0
 50
180.2152753892743
  0
LINE
  5
2FE
330
2
100
AcDbEntity
  8
TUONG
100
AcDbLine
 10
1337157.46540805
 20
259210.6632895707
 30
0.0
 11
1337157.46540805
 21
259110.6632895707
 31
0.0
  0
LINE
  5
2FF
330
2
100
AcDbEntity
  8
TUONG
100
AcDbLine
 10
1338857.510127018
 20
259210.6632895708
 30
0.0
 11
1338857.510127018
 21
259110.6632895708
 31
0.0
  0
LINE
  5
300
330
2
100
AcDbEntity
  8
TUONG
100
AcDbLine
 10
1338163.580332838
 20
259110.6632895708
 30
0.0
 11
1337857.510127017
 21
259110.6632895708
 31
0.0
  0
LINE
  5
301
330
2
100
AcDbEntity
  8
TUONG
100
AcDbLine
 10
1338163.580332838
 20
259210.6632895708
 30
0.0
 11
1338057.510127017
 21
259210.6632895708
 31
0.0
  0
LINE
  5
302
330
2
100
AcDbEntity
  8
TUONG
100
AcDbLine
 10
1337957.510127017
 20
259210.6632895708
 30
0.0
 11
1337857.510127017
 21
259210.6632895708
 31
0.0
  0
INSERT
  5
303
330
2
100
AcDbEntity
  8
NET THAY
100
AcDbBlockReference
  2
DOOR1T
 10
1337857.510127017
 20
259210.6632895706
 30
0.0
 41
700.505229390692
 42
700.505229390692
 43
700.5052293906806
 50
180.0
  0
LINE
  5
304
330
2
100
AcDbEntity
  8
TUONG
100
AcDbLine
 10
1337857.510127017
 20
259210.6632895706
 30
0.0
 11
1337857.510127017
 21
259110.6632895706
 31
0.0
  0
INSERT
  5
305
330
2
100
AcDbEntity
  8
NET THAY
100
AcDbBlockReference
  2
DOOR1T
 10
1338163.580332838
 20
259210.6632895708
 30
0.0
 41
-700.505229390692
 42
700.505229390692
 43
700.5052293906806
 50
180.0
  0
LINE
  5
306
330
2
100
AcDbEntity
  8
TUONG
100
AcDbLine
 10
1338163.580332838
 20
259210.6632895708
 30
0.0
 11
1338163.580332838
 21
259110.6632895709
 31
0.0
  0
INSERT
  5
307
330
2
100
AcDbEntity
  8
Layer1
100
AcDbBlockReference
  2
XIBET1
 10
1338519.328646713
 20
260617.2842274592
 30
0.0
 41
-0.9102769872438775
 42
0.9102769875898957
 43
0.9102769868837137
 50
359.7803708566234
  0
INSERT
  5
308
330
2
100
AcDbEntity
  8
Layer1
100
AcDbBlockReference
  2
XIBET1
 10
1337517.89167134
 20
260617.2842274592
 30
0.0
 41
-0.9102769872438775
 42
0.9102769875898957
 43
0.9102769868837137
 50
359.7803708566234
  0
LINE
  5
309
330
2
100
AcDbEntity
  8
TUONG
100
AcDbLine
 10
1322180.010127017
 20
256290.6632898679
 30
0.0
 11
1322180.010127017
 21
255141.6380678882
 31
0.0
  0
LINE
  5
30A
330
2
100
AcDbEntity
  8
TUONG
100
AcDbLine
 10
1322380.010127017
 20
256290.6632898681
 30
0.0
 11
1322380.010127019
 21
255141.6380678884
 31
0.0
  0
LINE
  5
30B
330
2
100
AcDbEntity
  8
TBNUOC
  6
Continuous
 62
    30
100
AcDbLine
 10
1339719.053543986
 20
257250.9028267608
 30
0.0
 11
1339719.053543986
 21
256650.9028267608
 31
0.0
  0
LINE
  5
310
330
2
100
AcDbEntity
  8
TBNUOC
  6
Continuous
 62
    30
100
AcDbLine
 10
1339719.053543986
 20
256650.9028267608
 30
0.0
 11
1340419.053543986
 21
256650.9028267608
 31
0.0
  0
LINE
  5
311
330
2
100
AcDbEntity
  8
TBNUOC
  6
Continuous
 62
    30
100
AcDbLine
 10
1340419.053543986
 20
256650.9028267608
 30
0.0
 11
1340419.053543986
 21
257350.9028267608
 31
0.0
  0
LINE
  5
312
330
2
100
AcDbEntity
  8
TBNUOC
 48
0.2
100
AcDbLine
 10
1340319.053543986
 20
257250.9028267608
 30
0.0
 11
1339819.053543986
 21
257250.9028267608
 31
0.0
  0
LINE
  5
313
330
2
100
AcDbEntity
  8
TBNUOC
 48
0.2
100
AcDbLine
 10
1339819.053543986
 20
257250.9028267608
 30
0.0
 11
1339819.053543986
 21
256750.9028267608
 31
0.0
  0
LINE
  5
314
330
2
100
AcDbEntity
  8
TBNUOC
 48
0.2
100
AcDbLine
 10
1339819.053543986
 20
256750.9028267608
 30
0.0
 11
1340319.053543986
 21
256750.9028267608
 31
0.0
  0
LINE
  5
315
330
2
100
AcDbEntity
  8
TBNUOC
 48
0.2
100
AcDbLine
 10
1340319.053543986
 20
256750.9028267608
 30
0.0
 11
1340319.053543986
 21
257250.9028267608
 31
0.0
  0
LINE
  5
316
330
2
100
AcDbEntity
  8
TEXT
100
AcDbLine
 10
1338769.053543986
 20
258400.9028267608
 30
0.0
 11
1338769.053543986
 21
257450.9028267608
 31
0.0
  0
LINE
  5
317
330
2
100
AcDbEntity
  8
TEXT
100
AcDbLine
 10
1338769.053543986
 20
258500.9028267608
 30
0.0
 11
1340219.053543986
 21
258500.9028267608
 31
0.0
  0
LINE
  5
318
330
2
100
AcDbEntity
  8
TEXT
100
AcDbLine
 10
1338769.053543986
 20
258400.9028267608
 30
0.0
 11
1340219.053543986
 21
258400.9028267608
 31
0.0
  0
LINE
  5
319
330
2
100
AcDbEntity
  8
TEXT
100
AcDbLine
 10
1338769.053543986
 20
259450.9028267608
 30
0.0
 11
1338769.053543986
 21
258500.9028267608
 31
0.0
  0
LINE
  5
31A
330
2
100
AcDbEntity
  8
TEXT
100
AcDbLine
 10
1338669.053543986
 20
259450.9028267608
 30
0.0
 11
1338669.053543986
 21
257450.9028267608
 31
0.0
  0
LINE
  5
31B
330
2
100
AcDbEntity
  8
TBNUOC
  6
DASHED
 62
     8
100
AcDbLine
 10
1340068.917185523
 20
259300.9255591975
 30
0.0
 11
1340068.73536735
 21
258900.9256005202
 31
0.0
  0
LINE
  5
31D
330
2
100
AcDbEntity
  8
TBNUOC
  6
DASHED
 62
     8
100
AcDbLine
 10
1340068.73536735
 20
258900.9256005202
 30
0.0
 11
1339668.735408672
 21
258901.1074186926
 31
0.0
  0
LINE
  5
31E
330
2
100
AcDbEntity
  8
TBNUOC
  6
DASHED
 62
     8
100
AcDbLine
 10
1339668.735408672
 20
258901.1074186926
 30
0.0
 11
1339668.917226845
 21
259301.1073773698
 31
0.0
  0
LINE
  5
31F
330
2
100
AcDbEntity
  8
TBNUOC
  6
DASHED
 62
     8
100
AcDbLine
 10
1339668.917226845
 20
259301.1073773698
 30
0.0
 11
1340068.917185523
 21
259300.9255591975
 31
0.0
  0
LINE
  5
320
330
2
100
AcDbEntity
  8
TBNUOC
  6
DASHED
 62
     8
100
AcDbLine
 10
1340118.939907628
 20
259350.9028267608
 30
0.0
 11
1340118.712634913
 21
258850.9028784138
 31
0.0
  0
LINE
  5
321
330
2
100
AcDbEntity
  8
TBNUOC
  6
DASHED
 62
     8
100
AcDbLine
 10
1340118.712634913
 20
258850.9028784138
 30
0.0
 11
1339618.712686566
 21
258851.1301511292
 31
0.0
  0
LINE
  5
322
330
2
100
AcDbEntity
  8
TBNUOC
  6
DASHED
 62
     8
100
AcDbLine
 10
1339618.712686566
 20
258851.1301511292
 30
0.0
 11
1339618.939959281
 21
259351.1300994762
 31
0.0
  0
LINE
  5
323
330
2
100
AcDbEntity
  8
TBNUOC
  6
DASHED
 62
     8
100
AcDbLine
 10
1339618.939959281
 20
259351.1300994762
 30
0.0
 11
1340118.939907628
 21
259350.9028267608
 31
0.0
  0
LINE
  5
324
330
2
100
AcDbEntity
  8
TBNUOC
  6
Continuous
 62
    30
100
AcDbLine
 10
1340419.053543986
 20
257250.9028267608
 30
0.0
 11
1340419.053543986
 21
259650.9028267608
 31
0.0
  0
LINE
  5
325
330
2
100
AcDbEntity
  8
TBNUOC
  6
Continuous
 62
    30
100
AcDbLine
 10
1340419.053543986
 20
259650.9028267608
 30
0.0
 11
1337019.053543986
 21
259650.9028267608
 31
0.0
  0
LINE
  5
326
330
2
100
AcDbEntity
  8
TBNUOC
  6
Continuous
 62
    30
100
AcDbLine
 10
1337019.053543986
 20
259650.9028267608
 30
0.0
 11
1337019.053543986
 21
257250.9028267608
 31
0.0
  0
LINE
  5
327
330
2
100
AcDbEntity
  8
TBNUOC
  6
Continuous
 62
    30
100
AcDbLine
 10
1337019.053543986
 20
257250.9028267608
 30
0.0
 11
1339719.053543986
 21
257250.9028267608
 31
0.0
  0
LINE
  5
328
330
2
100
AcDbEntity
  8
TBNUOC
100
AcDbLine
 10
1340219.053543986
 20
258500.9028267608
 30
0.0
 11
1340219.053543986
 21
259450.9028267608
 31
0.0
  0
LINE
  5
329
330
2
100
AcDbEntity
  8
TBNUOC
100
AcDbLine
 10
1340219.053543986
 20
259450.9028267608
 30
0.0
 11
1338769.053543986
 21
259450.9028267608
 31
0.0
  0
LINE
  5
32A
330
2
100
AcDbEntity
  8
TBNUOC
100
AcDbLine
 10
1338769.053543986
 20
257450.9028267608
 30
0.0
 11
1340219.053543986
 21
257450.9028267608
 31
0.0
  0
LINE
  5
32B
330
2
100
AcDbEntity
  8
TBNUOC
100
AcDbLine
 10
1340219.053543986
 20
257450.9028267608
 30
0.0
 11
1340219.053543986
 21
258400.9028267608
 31
0.0
  0
LINE
  5
32C
330
2
100
AcDbEntity
  8
TBNUOC
100
AcDbLine
 10
1338669.053543986
 20
259450.9028267608
 30
0.0
 11
1337219.053543986
 21
259450.9028267608
 31
0.0
  0
LINE
  5
32D
330
2
100
AcDbEntity
  8
TBNUOC
100
AcDbLine
 10
1337219.053543986
 20
259450.9028267608
 30
0.0
 11
1337219.053543986
 21
257450.9028267608
 31
0.0
  0
LINE
  5
32E
330
2
100
AcDbEntity
  8
TBNUOC
100
AcDbLine
 10
1337219.053543986
 20
257450.9028267608
 30
0.0
 11
1338669.053543986
 21
257450.9028267608
 31
0.0
  0
LINE
  5
32F
330
2
100
AcDbEntity
  8
TBNUOC
  6
DASHED
 62
     8
100
AcDbLine
 10
1337819.167128692
 20
259350.9028267608
 30
0.0
 11
1337818.939855976
 21
258850.9028784138
 31
0.0
  0
LINE
  5
330
330
2
100
AcDbEntity
  8
TBNUOC
  6
DASHED
 62
     8
100
AcDbLine
 10
1337818.939855976
 20
258850.9028784138
 30
0.0
 11
1337318.939907628
 21
258851.1301511292
 31
0.0
  0
LINE
  5
331
330
2
100
AcDbEntity
  8
TBNUOC
  6
DASHED
 62
     8
100
AcDbLine
 10
1337318.939907628
 20
258851.1301511292
 30
0.0
 11
1337319.167180344
 21
259351.1300994762
 31
0.0
  0
LINE
  5
332
330
2
100
AcDbEntity
  8
TBNUOC
  6
DASHED
 62
     8
100
AcDbLine
 10
1337319.167180344
 20
259351.1300994762
 30
0.0
 11
1337819.167128692
 21
259350.9028267608
 31
0.0
  0
LINE
  5
333
330
2
100
AcDbEntity
  8
TBNUOC
  6
DASHED
 62
     8
100
AcDbLine
 10
1337769.144406585
 20
259300.9255591975
 30
0.0
 11
1337768.962588413
 21
258900.9256005202
 31
0.0
  0
LINE
  5
334
330
2
100
AcDbEntity
  8
TBNUOC
  6
DASHED
 62
     8
100
AcDbLine
 10
1337768.962588413
 20
258900.9256005202
 30
0.0
 11
1337368.962629735
 21
258901.1074186926
 31
0.0
  0
LINE
  5
335
330
2
100
AcDbEntity
  8
TBNUOC
  6
DASHED
 62
     8
100
AcDbLine
 10
1337368.962629735
 20
258901.1074186926
 30
0.0
 11
1337369.144447907
 21
259301.1073773698
 31
0.0
  0
LINE
  5
336
330
2
100
AcDbEntity
  8
TBNUOC
  6
DASHED
 62
     8
100
AcDbLine
 10
1337369.144447907
 20
259301.1073773698
 30
0.0
 11
1337769.144406585
 21
259300.9255591975
 31
0.0
  0
LINE
  5
337
330
2
100
AcDbEntity
  8
TUONG
100
AcDbLine
 10
1340419.053543986
 20
256766.4931292994
 30
0.0
 11
1340303.463241447
 21
256650.9028267601
 31
0.0
  0
LINE
  5
338
330
2
100
AcDbEntity
  8
TUONG
100
AcDbLine
 10
1340419.053543986
 20
256907.9144855367
 30
0.0
 11
1340319.053543986
 21
256807.9144855368
 31
0.0
  0
LINE
  5
339
330
2
100
AcDbEntity
  8
TUONG
100
AcDbLine
 10
1340262.04188521
 20
256750.9028267608
 30
0.0
 11
1340162.04188521
 21
256650.9028267603
 31
0.0
  0
LINE
  5
33A
330
2
100
AcDbEntity
  8
TUONG
100
AcDbLine
 10
1340419.053543986
 20
257049.3358417741
 30
0.0
 11
1340319.053543986
 21
256949.3358417741
 31
0.0
  0
LINE
  5
33B
330
2
100
AcDbEntity
  8
TUONG
100
AcDbLine
 10
1340120.620528973
 20
256750.9028267608
 30
0.0
 11
1340020.620528972
 21
256650.9028267605
 31
0.0
  0
LINE
  5
33C
330
2
100
AcDbEntity
  8
TUONG
100
AcDbLine
 10
1340419.053543986
 20
257190.7571980114
 30
0.0
 11
1340319.053543986
 21
257090.7571980114
 31
0.0
  0
LINE
  5
33D
330
2
100
AcDbEntity
  8
TUONG
100
AcDbLine
 10
1339979.199172736
 20
256750.9028267608
 30
0.0
 11
1339879.199172735
 21
256650.9028267606
 31
0.0
  0
LINE
  5
33E
330
2
100
AcDbEntity
  8
TUONG
100
AcDbLine
 10
1340419.053543986
 20
257332.1785542487
 30
0.0
 11
1340319.053543986
 21
257232.1785542487
 31
0.0
  0
LINE
  5
33F
330
2
100
AcDbEntity
  8
TUONG
100
AcDbLine
 10
1339837.777816498
 20
256750.9028267607
 30
0.0
 11
1339737.777816498
 21
256650.9028267609
 31
0.0
  0
LINE
  5
340
330
2
100
AcDbEntity
  8
TUONG
100
AcDbLine
 10
1340419.053543986
 20
257473.599910486
 30
0.0
 11
1340196.35646026
 21
257250.9028267602
 31
0.0
  0
LINE
  5
341
330
2
100
AcDbEntity
  8
TUONG
100
AcDbLine
 10
1339819.053543985
 20
256873.599910485
 30
0.0
 11
1339719.053543986
 21
256773.5999104861
 31
0.0
  0
LINE
  5
342
330
2
100
AcDbEntity
  8
TUONG
100
AcDbLine
 10
1340419.053543986
 20
257615.0212667233
 30
0.0
 11
1340054.935104023
 21
257250.9028267605
 31
0.0
  0
LINE
  5
343
330
2
100
AcDbEntity
  8
TUONG
100
AcDbLine
 10
1339819.053543984
 20
257015.0212667211
 30
0.0
 11
1339719.053543986
 21
256915.0212667234
 31
0.0
  0
LINE
  5
344
330
2
100
AcDbEntity
  8
TUONG
100
AcDbLine
 10
1340419.053543986
 20
257756.4426229606
 30
0.0
 11
1340219.053543986
 21
257556.4426229606
 31
0.0
  0
LINE
  5
345
330
2
100
AcDbEntity
  8
TUONG
100
AcDbLine
 10
1339819.053543983
 20
257156.4426229572
 30
0.0
 11
1339719.053543986
 21
257056.4426229607
 31
0.0
  0
LINE
  5
346
330
2
100
AcDbEntity
  8
TUONG
100
AcDbLine
 10
1340113.513747786
 20
257450.9028267609
 30
0.0
 11
1339913.513747786
 21
257250.9028267606
 31
0.0
  0
LINE
  5
347
330
2
100
AcDbEntity
  8
TUONG
100
AcDbLine
 10
1340419.053543986
 20
257897.8639791979
 30
0.0
 11
1340219.053543986
 21
257697.8639791979
 31
0.0
  0
LINE
  5
348
330
2
100
AcDbEntity
  8
TUONG
100
AcDbLine
 10
1339972.092391549
 20
257450.9028267609
 30
0.0
 11
1339719.053543986
 21
257197.863979198
 31
0.0
  0
LINE
  5
349
330
2
100
AcDbEntity
  8
TUONG
100
AcDbLine
 10
1340419.053543986
 20
258039.2853354352
 30
0.0
 11
1340219.053543986
 21
257839.2853354352
 31
0.0
  0
LINE
  5
34A
330
2
100
AcDbEntity
  8
TUONG
100
AcDbLine
 10
1339830.671035312
 20
257450.9028267609
 30
0.0
 11
1339630.671035312
 21
257250.9028267609
 31
0.0
  0
LINE
  5
34B
330
2
100
AcDbEntity
  8
TUONG
100
AcDbLine
 10
1340419.053543986
 20
258180.7066916726
 30
0.0
 11
1340219.053543986
 21
257980.7066916725
 31
0.0
  0
LINE
  5
34C
330
2
100
AcDbEntity
  8
TUONG
100
AcDbLine
 10
1339689.249679074
 20
257450.9028267609
 30
0.0
 11
1339489.249679074
 21
257250.9028267609
 31
0.0
  0
LINE
  5
34D
330
2
100
AcDbEntity
  8
TUONG
100
AcDbLine
 10
1340419.053543986
 20
258322.1280479099
 30
0.0
 11
1340219.053543986
 21
258122.1280479099
 31
0.0
  0
LINE
  5
34E
330
2
100
AcDbEntity
  8
TUONG
100
AcDbLine
 10
1339547.828322837
 20
257450.9028267609
 30
0.0
 11
1339347.828322837
 21
257250.902826761
 31
0.0
  0
LINE
  5
34F
330
2
100
AcDbEntity
  8
TUONG
100
AcDbLine
 10
1340419.053543986
 20
258463.5494041472
 30
0.0
 11
1340219.053543986
 21
258263.5494041471
 31
0.0
  0
LINE
  5
350
330
2
100
AcDbEntity
  8
TUONG
100
AcDbLine
 10
1339406.4069666
 20
257450.9028267609
 30
0.0
 11
1339206.4069666
 21
257250.9028267611
 31
0.0
  0
LINE
  5
351
330
2
100
AcDbEntity
  8
TUONG
100
AcDbLine
 10
1340419.053543986
 20
258604.9707603845
 30
0.0
 11
1340214.985610363
 21
258400.902826761
 31
0.0
  0
LINE
  5
352
330
2
100
AcDbEntity
  8
TUONG
100
AcDbLine
 10
1339264.985610362
 20
257450.9028267609
 30
0.0
 11
1339064.985610363
 21
257250.9028267611
 31
0.0
  0
LINE
  5
353
330
2
100
AcDbEntity
  8
TUONG
100
AcDbLine
 10
1340419.053543986
 20
258746.3921166218
 30
0.0
 11
1340219.053543986
 21
258546.3921166218
 31
0.0
  0
LINE
  5
354
330
2
100
AcDbEntity
  8
TUONG
100
AcDbLine
 10
1339123.564254125
 20
257450.9028267608
 30
0.0
 11
1338923.564254125
 21
257250.9028267611
 31
0.0
  0
LINE
  5
355
330
2
100
AcDbEntity
  8
TUONG
100
AcDbLine
 10
1340173.564254125
 20
258500.9028267609
 30
0.0
 11
1340073.564254125
 21
258400.9028267609
 31
0.0
  0
LINE
  5
356
330
2
100
AcDbEntity
  8
TUONG
100
AcDbLine
 10
1340419.053543986
 20
258887.8134728591
 30
0.0
 11
1340219.053543986
 21
258687.8134728591
 31
0.0
  0
LINE
  5
357
330
2
100
AcDbEntity
  8
TUONG
100
AcDbLine
 10
1338982.142897888
 20
257450.9028267609
 30
0.0
 11
1338782.142897888
 21
257250.9028267612
 31
0.0
  0
LINE
  5
358
330
2
100
AcDbEntity
  8
TUONG
100
AcDbLine
 10
1340032.142897888
 20
258500.9028267609
 30
0.0
 11
1339932.142897888
 21
258400.9028267609
 31
0.0
  0
LINE
  5
359
330
2
100
AcDbEntity
  8
TUONG
100
AcDbLine
 10
1340419.053543986
 20
259029.2348290964
 30
0.0
 11
1340219.053543986
 21
258829.2348290965
 31
0.0
  0
LINE
  5
35A
330
2
100
AcDbEntity
  8
TUONG
100
AcDbLine
 10
1338840.72154165
 20
257450.9028267609
 30
0.0
 11
1338640.721541651
 21
257250.9028267612
 31
0.0
  0
LINE
  5
35B
330
2
100
AcDbEntity
  8
TUONG
100
AcDbLine
 10
1339890.721541651
 20
258500.9028267611
 30
0.0
 11
1339790.721541651
 21
258400.902826761
 31
0.0
  0
LINE
  5
35C
330
2
100
AcDbEntity
  8
TUONG
100
AcDbLine
 10
1340419.053543986
 20
259170.6561853337
 30
0.0
 11
1340219.053543986
 21
258970.6561853338
 31
0.0
  0
LINE
  5
35D
330
2
100
AcDbEntity
  8
TUONG
100
AcDbLine
 10
1338769.053543986
 20
257520.6561853338
 30
0.0
 11
1338499.300185414
 21
257250.9028267613
 31
0.0
  0
LINE
  5
35E
330
2
100
AcDbEntity
  8
TUONG
100
AcDbLine
 10
1340118.721462743
 20
258870.3241040909
 30
0.0
 11
1340099.309056876
 21
258850.9116982235
 31
0.0
  0
LINE
  5
35F
330
2
100
AcDbEntity
  8
TUONG
100
AcDbLine
 10
1339749.300185413
 20
258500.9028267613
 30
0.0
 11
1339649.300185413
 21
258400.902826761
 31
0.0
  0
LINE
  5
360
330
2
100
AcDbEntity
  8
TUONG
100
AcDbLine
 10
1340419.053543986
 20
259312.077541571
 30
0.0
 11
1340219.053543986
 21
259112.077541571
 31
0.0
  0
LINE
  5
361
330
2
100
AcDbEntity
  8
TUONG
100
AcDbLine
 10
1338557.878829176
 20
257450.9028267608
 30
0.0
 11
1338357.878829176
 21
257250.9028267613
 31
0.0
  0
LINE
  5
362
330
2
100
AcDbEntity
  8
TUONG
100
AcDbLine
 10
1340118.785774413
 20
259011.8097719988
 30
0.0
 11
1340068.763031637
 21
258961.7870292219
 31
0.0
  0
LINE
  5
363
330
2
100
AcDbEntity
  8
TUONG
100
AcDbLine
 10
1338769.053543986
 20
257662.0775415711
 30
0.0
 11
1338669.053543986
 21
257562.077541571
 31
0.0
  0
LINE
  5
364
330
2
100
AcDbEntity
  8
TUONG
100
AcDbLine
 10
1340007.929242085
 20
258900.9532396697
 30
0.0
 11
1339957.95195387
 21
258850.9759514553
 31
0.0
  0
LINE
  5
365
330
2
100
AcDbEntity
  8
TUONG
100
AcDbLine
 10
1339607.878829176
 20
258500.9028267613
 30
0.0
 11
1339507.878829176
 21
258400.9028267609
 31
0.0
  0
LINE
  5
366
330
2
100
AcDbEntity
  8
TUONG
100
AcDbLine
 10
1340419.053543986
 20
259453.4988978083
 30
0.0
 11
1340219.053543986
 21
259253.4988978083
 31
0.0
  0
LINE
  5
367
330
2
100
AcDbEntity
  8
TUONG
100
AcDbLine
 10
1338416.457472939
 20
257450.9028267608
 30
0.0
 11
1338216.457472939
 21
257250.9028267614
 31
0.0
  0
LINE
  5
368
330
2
100
AcDbEntity
  8
TUONG
100
AcDbLine
 10
1340118.850086084
 20
259153.2954399066
 30
0.0
 11
1340068.827343308
 21
259103.27269713
 31
0.0
  0
LINE
  5
369
330
2
100
AcDbEntity
  8
TUONG
100
AcDbLine
 10
1338769.053543986
 20
257803.4988978084
 30
0.0
 11
1338669.053543986
 21
257703.4988978083
 31
0.0
  0
LINE
  5
36A
330
2
100
AcDbEntity
  8
TUONG
100
AcDbLine
 10
1339866.57213908
 20
258901.0174929019
 30
0.0
 11
1339816.594850865
 21
258851.0402046873
 31
0.0
  0
LINE
  5
36B
330
2
100
AcDbEntity
  8
TUONG
100
AcDbLine
 10
1339466.457472939
 20
258500.9028267613
 30
0.0
 11
1339366.457472939
 21
258400.9028267609
 31
0.0
  0
LINE
  5
36C
330
2
100
AcDbEntity
  8
TUONG
100
AcDbLine
 10
1340419.053543986
 20
259594.9202540456
 30
0.0
 11
1340219.053543986
 21
259394.9202540457
 31
0.0
  0
LINE
  5
36D
330
2
100
AcDbEntity
  8
TUONG
100
AcDbLine
 10
1338275.036116701
 20
257450.9028267609
 30
0.0
 11
1338075.036116701
 21
257250.9028267613
 31
0.0
  0
LINE
  5
36E
330
2
100
AcDbEntity
  8
TUONG
100
AcDbLine
 10
1340118.914397755
 20
259294.7811078144
 30
0.0
 11
1340068.891654978
 21
259244.7583650382
 31
0.0
  0
LINE
  5
36F
330
2
100
AcDbEntity
  8
TUONG
100
AcDbLine
 10
1338769.053543986
 20
257944.9202540457
 30
0.0
 11
1338669.053543986
 21
257844.9202540457
 31
0.0
  0
LINE
  5
370
330
2
100
AcDbEntity
  8
TUONG
100
AcDbLine
 10
1339725.215036075
 20
258901.0817461341
 30
0.0
 11
1339675.23774786
 21
258851.1044579193
 31
0.0
  0
LINE
  5
371
330
2
100
AcDbEntity
  8
TUONG
100
AcDbLine
 10
1339325.036116702
 20
258500.9028267614
 30
0.0
 11
1339225.036116701
 21
258400.9028267609
 31
0.0
  0
LINE
  5
372
330
2
100
AcDbEntity
  8
TUONG
100
AcDbLine
 10
1340333.614760464
 20
259650.902826761
 30
0.0
 11
1340133.614760464
 21
259450.902826761
 31
0.0
  0
LINE
  5
373
330
2
100
AcDbEntity
  8
TUONG
100
AcDbLine
 10
1338133.614760464
 20
257450.9028267609
 30
0.0
 11
1337933.614760465
 21
257250.9028267614
 31
0.0
  0
LINE
  5
374
330
2
100
AcDbEntity
  8
TUONG
100
AcDbLine
 10
1340033.653527002
 20
259350.9415932988
 30
0.0
 11
1339983.676238788
 21
259300.9643050851
 31
0.0
  0
LINE
  5
375
330
2
100
AcDbEntity
  8
TUONG
100
AcDbLine
 10
1338769.053543986
 20
258086.341610283
 30
0.0
 11
1338669.053543986
 21
257986.341610283
 31
0.0
  0
LINE
  5
376
330
2
100
AcDbEntity
  8
TUONG
100
AcDbLine
 10
1339668.774024434
 20
258986.0620907314
 30
0.0
 11
1339618.751281657
 21
258936.0393479543
 31
0.0
  0
LINE
  5
377
330
2
100
AcDbEntity
  8
TUONG
100
AcDbLine
 10
1339183.614760464
 20
258500.9028267615
 30
0.0
 11
1339083.614760464
 21
258400.902826761
 31
0.0
  0
LINE
  5
378
330
2
100
AcDbEntity
  8
TUONG
100
AcDbLine
 10
1340192.193404227
 20
259650.9028267608
 30
0.0
 11
1339992.193404227
 21
259450.9028267608
 31
0.0
  0
LINE
  5
379
330
2
100
AcDbEntity
  8
TUONG
100
AcDbLine
 10
1337992.193404227
 20
257450.9028267608
 30
0.0
 11
1337792.193404227
 21
257250.9028267614
 31
0.0
  0
LINE
  5
37A
330
2
100
AcDbEntity
  8
TUONG
100
AcDbLine
 10
1339892.296423997
 20
259351.0058465309
 30
0.0
 11
1339842.319135782
 21
259301.0285583168
 31
0.0
  0
LINE
  5
37B
330
2
100
AcDbEntity
  8
TUONG
100
AcDbLine
 10
1338769.053543986
 20
258227.7629665203
 30
0.0
 11
1338669.053543986
 21
258127.7629665204
 31
0.0
  0
LINE
  5
37C
330
2
100
AcDbEntity
  8
TUONG
100
AcDbLine
 10
1339668.838336105
 20
259127.5477586392
 30
0.0
 11
1339618.815593328
 21
259077.5250158621
 31
0.0
  0
LINE
  5
37D
330
2
100
AcDbEntity
  8
TUONG
100
AcDbLine
 10
1339042.193404227
 20
258500.9028267616
 30
0.0
 11
1338942.193404227
 21
258400.9028267609
 31
0.0
  0
LINE
  5
37E
330
2
100
AcDbEntity
  8
TUONG
100
AcDbLine
 10
1340050.772047989
 20
259650.9028267608
 30
0.0
 11
1339850.772047989
 21
259450.9028267608
 31
0.0
  0
LINE
  5
37F
330
2
100
AcDbEntity
  8
TUONG
100
AcDbLine
 10
1337850.772047989
 20
257450.9028267609
 30
0.0
 11
1337650.77204799
 21
257250.9028267615
 31
0.0
  0
LINE
  5
380
330
2
100
AcDbEntity
  8
TUONG
100
AcDbLine
 10
1339750.939320991
 20
259351.0700997631
 30
0.0
 11
1339700.962032777
 21
259301.0928115483
 31
0.0
  0
LINE
  5
381
330
2
100
AcDbEntity
  8
TUONG
100
AcDbLine
 10
1338769.053543986
 20
258369.1843227576
 30
0.0
 11
1338669.053543986
 21
258269.1843227576
 31
0.0
  0
LINE
  5
382
330
2
100
AcDbEntity
  8
TUONG
100
AcDbLine
 10
1339668.902647775
 20
259269.0334265469
 30
0.0
 11
1339618.879904998
 21
259219.0106837698
 31
0.0
  0
LINE
  5
383
330
2
100
AcDbEntity
  8
TUONG
100
AcDbLine
 10
1338900.77204799
 20
258500.9028267616
 30
0.0
 11
1338800.772047989
 21
258400.9028267609
 31
0.0
  0
LINE
  5
384
330
2
100
AcDbEntity
  8
TUONG
100
AcDbLine
 10
1339909.350691752
 20
259650.9028267607
 30
0.0
 11
1339709.350691752
 21
259450.9028267609
 31
0.0
  0
LINE
  5
385
330
2
100
AcDbEntity
  8
TUONG
100
AcDbLine
 10
1337709.350691752
 20
257450.9028267609
 30
0.0
 11
1337509.350691753
 21
257250.9028267615
 31
0.0
  0
LINE
  5
386
330
2
100
AcDbEntity
  8
TUONG
100
AcDbLine
 10
1338769.053543986
 20
258510.605678995
 30
0.0
 11
1338669.053543986
 21
258410.6056789949
 31
0.0
  0
LINE
  5
387
330
2
100
AcDbEntity
  8
TUONG
100
AcDbLine
 10
1339767.929335514
 20
259650.9028267607
 30
0.0
 11
1339567.929335515
 21
259450.9028267609
 31
0.0
  0
LINE
  5
388
330
2
100
AcDbEntity
  8
TUONG
100
AcDbLine
 10
1337567.929335515
 20
257450.9028267609
 30
0.0
 11
1337367.929335515
 21
257250.9028267616
 31
0.0
  0
LINE
  5
389
330
2
100
AcDbEntity
  8
TUONG
100
AcDbLine
 10
1338769.053543986
 20
258652.0270352323
 30
0.0
 11
1338669.053543986
 21
258552.0270352323
 31
0.0
  0
LINE
  5
38A
330
2
100
AcDbEntity
  8
TUONG
100
AcDbLine
 10
1339626.507979277
 20
259650.9028267607
 30
0.0
 11
1339426.507979277
 21
259450.9028267609
 31
0.0
  0
LINE
  5
38B
330
2
100
AcDbEntity
  8
TUONG
100
AcDbLine
 10
1337426.507979277
 20
257450.9028267609
 30
0.0
 11
1337226.507979278
 21
257250.9028267616
 31
0.0
  0
LINE
  5
38C
330
2
100
AcDbEntity
  8
TUONG
100
AcDbLine
 10
1338769.053543986
 20
258793.4483914696
 30
0.0
 11
1338669.053543986
 21
258693.4483914696
 31
0.0
  0
LINE
  5
38D
330
2
100
AcDbEntity
  8
TUONG
100
AcDbLine
 10
1339485.08662304
 20
259650.9028267606
 30
0.0
 11
1339285.08662304
 21
259450.9028267608
 31
0.0
  0
LINE
  5
38E
330
2
100
AcDbEntity
  8
TUONG
100
AcDbLine
 10
1337285.08662304
 20
257450.9028267609
 30
0.0
 11
1337085.086623041
 21
257250.9028267616
 31
0.0
  0
LINE
  5
38F
330
2
100
AcDbEntity
  8
TUONG
100
AcDbLine
 10
1338769.053543986
 20
258934.8697477069
 30
0.0
 11
1338669.053543986
 21
258834.8697477069
 31
0.0
  0
LINE
  5
390
330
2
100
AcDbEntity
  8
TUONG
100
AcDbLine
 10
1339343.665266802
 20
259650.9028267606
 30
0.0
 11
1339143.665266803
 21
259450.9028267608
 31
0.0
  0
LINE
  5
391
330
2
100
AcDbEntity
  8
TUONG
100
AcDbLine
 10
1337219.053543986
 20
257526.2911039441
 30
0.0
 11
1337019.053543986
 21
257326.2911039442
 31
0.0
  0
LINE
  5
392
330
2
100
AcDbEntity
  8
TUONG
100
AcDbLine
 10
1338769.053543986
 20
259076.2911039442
 30
0.0
 11
1338669.053543986
 21
258976.2911039442
 31
0.0
  0
LINE
  5
393
330
2
100
AcDbEntity
  8
TUONG
100
AcDbLine
 10
1339202.243910565
 20
259650.9028267605
 30
0.0
 11
1339002.243910565
 21
259450.9028267609
 31
0.0
  0
LINE
  5
394
330
2
100
AcDbEntity
  8
TUONG
100
AcDbLine
 10
1337219.053543986
 20
257667.7124601814
 30
0.0
 11
1337019.053543986
 21
257467.7124601816
 31
0.0
  0
LINE
  5
395
330
2
100
AcDbEntity
  8
TUONG
100
AcDbLine
 10
1338769.053543986
 20
259217.7124601815
 30
0.0
 11
1338669.053543986
 21
259117.7124601815
 31
0.0
  0
LINE
  5
396
330
2
100
AcDbEntity
  8
TUONG
100
AcDbLine
 10
1339060.822554328
 20
259650.9028267605
 30
0.0
 11
1338860.822554328
 21
259450.9028267608
 31
0.0
  0
LINE
  5
397
330
2
100
AcDbEntity
  8
TUONG
100
AcDbLine
 10
1337219.053543986
 20
257809.1338164188
 30
0.0
 11
1337019.053543986
 21
257609.1338164189
 31
0.0
  0
LINE
  5
398
330
2
100
AcDbEntity
  8
TUONG
100
AcDbLine
 10
1338769.053543986
 20
259359.1338164188
 30
0.0
 11
1338669.053543986
 21
259259.1338164189
 31
0.0
  0
LINE
  5
399
330
2
100
AcDbEntity
  8
TUONG
100
AcDbLine
 10
1338919.40119809
 20
259650.9028267605
 30
0.0
 11
1338669.053543986
 21
259400.5551726561
 31
0.0
  0
LINE
  5
39A
330
2
100
AcDbEntity
  8
TUONG
100
AcDbLine
 10
1337219.053543986
 20
257950.5551726561
 30
0.0
 11
1337019.053543986
 21
257750.5551726562
 31
0.0
  0
LINE
  5
39B
330
2
100
AcDbEntity
  8
TUONG
100
AcDbLine
 10
1338777.979841853
 20
259650.9028267604
 30
0.0
 11
1338577.979841854
 21
259450.9028267609
 31
0.0
  0
LINE
  5
39C
330
2
100
AcDbEntity
  8
TUONG
100
AcDbLine
 10
1337219.053543986
 20
258091.9765288934
 30
0.0
 11
1337019.053543986
 21
257891.9765288934
 31
0.0
  0
LINE
  5
39D
330
2
100
AcDbEntity
  8
TUONG
100
AcDbLine
 10
1338636.558485616
 20
259650.9028267604
 30
0.0
 11
1338436.558485616
 21
259450.9028267608
 31
0.0
  0
LINE
  5
39E
330
2
100
AcDbEntity
  8
TUONG
100
AcDbLine
 10
1337219.053543986
 20
258233.3978851306
 30
0.0
 11
1337019.053543986
 21
258033.3978851307
 31
0.0
  0
LINE
  5
39F
330
2
100
AcDbEntity
  8
TUONG
100
AcDbLine
 10
1338495.137129378
 20
259650.9028267603
 30
0.0
 11
1338295.137129379
 21
259450.9028267609
 31
0.0
  0
LINE
  5
3A0
330
2
100
AcDbEntity
  8
TUONG
100
AcDbLine
 10
1337219.053543986
 20
258374.819241368
 30
0.0
 11
1337019.053543986
 21
258174.8192413681
 31
0.0
  0
LINE
  5
3A1
330
2
100
AcDbEntity
  8
TUONG
100
AcDbLine
 10
1337818.996155512
 20
258974.761852894
 30
0.0
 11
1337768.973412736
 21
258924.7391101181
 31
0.0
  0
LINE
  5
3A2
330
2
100
AcDbEntity
  8
TUONG
100
AcDbLine
 10
1337745.170717626
 20
258900.9364150084
 30
0.0
 11
1337695.19342941
 21
258850.9591267915
 31
0.0
  0
LINE
  5
3A3
330
2
100
AcDbEntity
  8
TUONG
100
AcDbLine
 10
1338353.715773141
 20
259650.9028267603
 30
0.0
 11
1338153.715773142
 21
259450.9028267609
 31
0.0
  0
LINE
  5
3A4
330
2
100
AcDbEntity
  8
TUONG
100
AcDbLine
 10
1337219.053543986
 20
258516.2405976053
 30
0.0
 11
1337019.053543986
 21
258316.2405976054
 31
0.0
  0
LINE
  5
3A5
330
2
100
AcDbEntity
  8
TUONG
100
AcDbLine
 10
1337819.060467183
 20
259116.2475208022
 30
0.0
 11
1337769.037724406
 21
259066.2247780258
 31
0.0
  0
LINE
  5
3A6
330
2
100
AcDbEntity
  8
TUONG
100
AcDbLine
 10
1337603.813614621
 20
258901.00066824
 30
0.0
 11
1337553.836326404
 21
258851.0233800235
 31
0.0
  0
LINE
  5
3A7
330
2
100
AcDbEntity
  8
TUONG
100
AcDbLine
 10
1338212.294416903
 20
259650.9028267603
 30
0.0
 11
1338012.294416904
 21
259450.9028267608
 31
0.0
  0
LINE
  5
3A8
330
2
100
AcDbEntity
  8
TUONG
100
AcDbLine
 10
1337219.053543986
 20
258657.6619538426
 30
0.0
 11
1337019.053543986
 21
258457.6619538425
 31
0.0
  0
LINE
  5
3A9
330
2
100
AcDbEntity
  8
TUONG
100
AcDbLine
 10
1337819.124778854
 20
259257.7331887104
 30
0.0
 11
1337769.102036077
 21
259207.7104459337
 31
0.0
  0
LINE
  5
3AA
330
2
100
AcDbEntity
  8
TUONG
100
AcDbLine
 10
1337462.456511615
 20
258901.0649214716
 30
0.0
 11
1337412.479223399
 21
258851.0876332554
 31
0.0
  0
LINE
  5
3AB
330
2
100
AcDbEntity
  8
TUONG
100
AcDbLine
 10
1338070.873060666
 20
259650.9028267602
 30
0.0
 11
1337870.873060667
 21
259450.9028267609
 31
0.0
  0
LINE
  5
3AC
330
2
100
AcDbEntity
  8
TUONG
100
AcDbLine
 10
1337219.053543986
 20
258799.0833100799
 30
0.0
 11
1337019.053543986
 21
258599.0833100798
 31
0.0
  0
LINE
  5
3AD
330
2
100
AcDbEntity
  8
TUONG
100
AcDbLine
 10
1337770.895002543
 20
259350.9247686374
 30
0.0
 11
1337720.917714328
 21
259300.9474804224
 31
0.0
  0
LINE
  5
3AE
330
2
100
AcDbEntity
  8
TUONG
100
AcDbLine
 10
1337368.984405533
 20
258949.0141716267
 30
0.0
 11
1337318.961662756
 21
258898.9914288495
 31
0.0
  0
LINE
  5
3AF
330
2
100
AcDbEntity
  8
TUONG
100
AcDbLine
 10
1337929.451704429
 20
259650.9028267602
 30
0.0
 11
1337729.451704429
 21
259450.9028267609
 31
0.0
  0
LINE
  5
3B0
330
2
100
AcDbEntity
  8
TUONG
100
AcDbLine
 10
1337219.053543986
 20
258940.5046663172
 30
0.0
 11
1337019.053543986
 21
258740.5046663171
 31
0.0
  0
LINE
  5
3B1
330
2
100
AcDbEntity
  8
TUONG
100
AcDbLine
 10
1337629.537899538
 20
259350.9890218693
 30
0.0
 11
1337579.560611323
 21
259301.0117336542
 31
0.0
  0
LINE
  5
3B2
330
2
100
AcDbEntity
  8
TUONG
100
AcDbLine
 10
1337369.048717203
 20
259090.4998395343
 30
0.0
 11
1337319.025974426
 21
259040.4770967575
 31
0.0
  0
LINE
  5
3B3
330
2
100
AcDbEntity
  8
TUONG
100
AcDbLine
 10
1337788.030348192
 20
259650.9028267601
 30
0.0
 11
1337588.030348192
 21
259450.9028267609
 31
0.0
  0
LINE
  5
3B4
330
2
100
AcDbEntity
  8
TUONG
100
AcDbLine
 10
1337219.053543986
 20
259081.9260225546
 30
0.0
 11
1337019.053543986
 21
258881.9260225544
 31
0.0
  0
LINE
  5
3B5
330
2
100
AcDbEntity
  8
TUONG
100
AcDbLine
 10
1337488.180796533
 20
259351.0532751013
 30
0.0
 11
1337438.203508318
 21
259301.0759868862
 31
0.0
  0
LINE
  5
3B6
330
2
100
AcDbEntity
  8
TUONG
100
AcDbLine
 10
1337369.113028874
 20
259231.9855074423
 30
0.0
 11
1337319.090286097
 21
259181.9627646653
 31
0.0
  0
LINE
  5
3B7
330
2
100
AcDbEntity
  8
TUONG
100
AcDbLine
 10
1337646.608991954
 20
259650.9028267601
 30
0.0
 11
1337446.608991955
 21
259450.902826761
 31
0.0
  0
LINE
  5
3B8
330
2
100
AcDbEntity
  8
TUONG
100
AcDbLine
 10
1337219.053543986
 20
259223.3473787919
 30
0.0
 11
1337019.053543986
 21
259023.3473787918
 31
0.0
  0
LINE
  5
3B9
330
2
100
AcDbEntity
  8
TUONG
100
AcDbLine
 10
1337346.823693527
 20
259351.1175283333
 30
0.0
 11
1337319.154597767
 21
259323.4484325731
 31
0.0
  0
LINE
  5
3BA
330
2
100
AcDbEntity
  8
TUONG
100
AcDbLine
 10
1337505.187635717
 20
259650.9028267601
 30
0.0
 11
1337305.187635718
 21
259450.9028267608
 31
0.0
  0
LINE
  5
3BB
330
2
100
AcDbEntity
  8
TUONG
100
AcDbLine
 10
1337219.053543986
 20
259364.7687350292
 30
0.0
 11
1337019.053543986
 21
259164.768735029
 31
0.0
  0
LINE
  5
3BC
330
2
100
AcDbEntity
  8
TUONG
100
AcDbLine
 10
1337363.766279479
 20
259650.90282676
 30
0.0
 11
1337019.053543986
 21
259306.1900912663
 31
0.0
  0
LINE
  5
3BD
330
2
100
AcDbEntity
  8
TUONG
100
AcDbLine
 10
1337222.344923242
 20
259650.9028267599
 30
0.0
 11
1337019.053543986
 21
259447.6114475036
 31
0.0
  0
LINE
  5
3BE
330
2
100
AcDbEntity
  8
TUONG
100
AcDbLine
 10
1337080.923567005
 20
259650.9028267599
 30
0.0
 11
1337019.053543986
 21
259589.0328037409
 31
0.0
  0
TEXT
  5
3BF
330
2
100
AcDbEntity
  8
TEXT
100
AcDbText
 10
1337275.483538991
 20
258159.2347923769
 30
0.0
 40
182.0
  1
HAÀM TÖÏ HOAÏI 
  7
TEXT-STYLE01
100
AcDbText
  0
LWPOLYLINE
  5
3C1
330
2
100
AcDbEntity
  8
KICHTHUOC
 48
5.0
100
AcDbPolyline
 90
        3
 70
     0
 43
0.0
 10
1335270.58960625
 20
260240.6715651876
 10
1338511.134123191
 20
260240.6715651876
 10
1338511.134123191
 20
259247.8274971161
  0
LWPOLYLINE
  5
3C2
330
2
100
AcDbEntity
  8
KICHTHUOC
  6
THOAT_NUOC_PHI_60
 62
     2
 48
20.0
100
AcDbPolyline
 90
        2
 70
     0
 43
20.0
 10
1340120.916259301
 20
257018.754788172
 10
1341676.621790944
 20
257018.754788172
  0
TEXT
  5
3C4
330
2
100
AcDbEntity
  8
TEXT
100
AcDbText
 10
1343097.55282358
 20
257506.4511839164
 30
0.0
 40
127.4
  1
THOAÙT RA
  7
TEXT-STYLE01
100
AcDbText
  0
TEXT
  5
3C5
330
2
100
AcDbEntity
  8
TEXT
100
AcDbText
 10
1342396.249938894
 20
257263.2266799939
 30
0.0
 40
127.4
  1
HEÄ THOÁNG COÁNG THAØNH PHOÁ
  7
TEXT-STYLE01
100
AcDbText
  0
LWPOLYLINE
  5
3C6
330
2
100
AcDbEntity
  8
TBNUOC
100
AcDbPolyline
 90
        4
 70
     1
 43
0.0
 10
1341546.20007981
 20
256588.7980941838
 10
1342064.60007981
 20
256588.7980941838
 10
1342064.60007981
 20
257107.1980941838
 10
1341546.20007981
 20
257107.1980941838
  0
LWPOLYLINE
  5
3C7
330
2
100
AcDbEntity
  8
TBNUOC
100
AcDbPolyline
 90
        4
 70
     1
 43
0.0
 10
1341503.00007981
 20
256545.5980941838
 10
1342107.80007981
 20
256545.5980941838
 10
1342107.80007981
 20
257150.3980941838
 10
1341503.00007981
 20
257150.3980941838
  0
LINE
  5
3C8
330
2
100
AcDbEntity
  8
DEN5-2BONG
 62
   251
100
AcDbLine
 10
1341546.20007981
 20
257107.1980941838
 30
0.0
 11
1342064.60007981
 21
256588.7980941838
 31
0.0
  0
LINE
  5
3CD
330
2
100
AcDbEntity
  8
DEN5-2BONG
 62
   251
100
AcDbLine
 10
1341546.20007981
 20
256588.7980941838
 30
0.0
 11
1342064.60007981
 21
257107.1980941838
 31
0.0
  0
LEADER
  5
3CE
330
2
100
AcDbEntity
  8
DAYDIEN
  6
FENCELINE1
100
AcDbLeader
  3
1-100
 76
     2
 10
1343606.17541067
 20
256661.9263235037
 30
0.0
 10
1342775.786605334
 20
256661.9263235037
 30
0.0
211
0.0000000000000003
221
1.0
231
0.0
1001
ACAD
1000
DSTYLE
1002
{
1070
    41
1040
120.0
1070
    40
1040
1.0
1070
    77
1070
     0
1070
   140
1040
500.0
1070
   147
1040
60.0
1070
   341
1005
0
1002
}
1000
RTMaterial
1005
0
  0
TEXT
  5
3D8
330
2
100
AcDbEntity
  8
TEXT
100
AcDbText
 10
1342873.985516564
 20
256715.8002314229
 30
0.0
 40
182.0
  1
i=5%
  7
TEXT-STYLE01
100
AcDbText
  0
LWPOLYLINE
  5
3D9
330
2
100
AcDbEntity
  8
KICHTHUOC
  6
THOAT_NUOCT114
 62
     2
 48
30.0
100
AcDbPolyline
 90
        2
 70
     0
 43
40.0
 10
1341956.353897954
 20
257020.9165212379
 10
1344359.072227718
 20
257020.9165212379
  0
LINE
  5
3DB
330
2
100
AcDbEntity
  8
015
100
AcDbLine
 10
1338677.781875811
 20
255557.40030812
 30
0.0
 11
1337957.696677
 21
255557.40030812
 31
0.0
  0
LWPOLYLINE
  5
3E0
330
2
100
AcDbEntity
  8
TBNUOC
100
AcDbPolyline
 90
        4
 70
     1
 43
0.0
 10
1338077.696677
 20
255557.4003081199
 10
1338557.696677
 20
255557.4003081199
 10
1338557.696677
 20
256037.4003081199
 10
1338077.696677
 20
256037.4003081199
  0
LWPOLYLINE
  5
3E1
330
2
100
AcDbEntity
  8
TBNUOC
 62
    30
100
AcDbPolyline
 90
        4
 70
     1
 43
0.0
 10
1337957.696677
 20
255557.4003081199
 10
1338677.696676999
 20
255557.4003081199
 10
1338677.696676999
 20
256157.4003081199
 10
1337957.696677
 20
256157.4003081199
  0
INSERT
  5
3E2
330
2
100
AcDbEntity
  8
TBNUOC
100
AcDbBlockReference
  2
MAY BOM
 10
1338223.835017845
 20
255700.0102809876
 30
0.0
 41
1.200000000011641
 42
1.199999999997089
 43
1.199999999999999
  0
LWPOLYLINE
  5
452
330
2
100
AcDbEntity
  8
KICHTHUOC
  6
CAP_NUOC_PHI_27
 62
     2
 48
20.0
100
AcDbPolyline
 90
        2
 70
     0
 43
20.0
 10
1338557.696677
 20
255797.4003081199
 10
1343046.951387911
 20
255797.4003081199
  0
LWPOLYLINE
  5
454
330
2
100
AcDbEntity
  8
KICHTHUOC
  6
CAP_NUOC_PHI_27
 62
     2
 48
20.0
100
AcDbPolyline
 90
        3
 70
     0
 43
20.0
 10
1338114.181267844
 20
255815.4352809872
 10
1337690.926792274
 20
255815.4352809872
 10
1337690.926792274
 20
257250.9028267608
  0
TEXT
  5
455
330
2
100
AcDbEntity
  8
TEXT
100
AcDbText
 10
1337922.950427575
 20
255273.2693220698
 30
0.0
 40
127.4
  1
MAÙY BÔM
  7
TEXT-STYLE01
100
AcDbText
  0
TEXT
  5
456
330
2
100
AcDbEntity
  8
TEXT
100
AcDbText
 10
1343022.692347476
 20
255560.1223230397
 30
0.0
 40
127.4
  1
CAÁP NÖÔÙC NGUOÀN
  7
TEXT-STYLE01
100
AcDbText
  0
INSERT
  5
457
330
2
100
AcDbEntity
  8
TBNUOC
 48
600.0
100
AcDbBlockReference
  2
pheuthu
 10
1334864.356669729
 20
260481.8956400756
 30
0.0
 41
1.233725490281358
 42
1.233725490194046
 43
1.233725490196078
  0
INSERT
  5
46B
330
2
100
AcDbEntity
  8
TBNUOC
 48
600.0
100
AcDbBlockReference
  2
pheuthu
 10
1336005.779994634
 20
260495.2040872641
 30
0.0
 41
1.233725490281358
 42
1.233725490194046
 43
1.233725490196078
  0
INSERT
  5
46C
330
2
100
AcDbEntity
  8
TBNUOC
 48
600.0
100
AcDbBlockReference
  2
pheuthu
 10
1337050.543775391
 20
260499.0609166662
 30
0.0
 41
1.233725490281358
 42
1.233725490194046
 43
1.233725490196078
  0
INSERT
  5
46D
330
2
100
AcDbEntity
  8
TBNUOC
 48
600.0
100
AcDbBlockReference
  2
pheuthu
 10
1338152.975707837
 20
260500.2513660015
 30
0.0
 41
1.233725490281358
 42
1.233725490194046
 43
1.233725490196078
  0
INSERT
  5
46E
330
2
100
AcDbEntity
  8
TBNUOC
 48
600.0
100
AcDbBlockReference
  2
pheuthu
 10
1334876.869099276
 20
256625.1277013395
 30
0.0
 41
1.233725490281358
 42
1.233725490194046
 43
1.233725490196078
  0
INSERT
  5
46F
330
2
100
AcDbEntity
  8
TBNUOC
 48
600.0
100
AcDbBlockReference
  2
pheuthu
 10
1340943.236791664
 20
260494.7342156175
 30
0.0
 41
1.233725490281358
 42
1.233725490194046
 43
1.233725490196078
  0
LWPOLYLINE
  5
470
330
2
100
AcDbEntity
  8
KICHTHUOC
  6
THOAT_NUOCT114
 62
     2
 48
30.0
100
AcDbPolyline
 90
        2
 70
     0
 43
40.0
 10
1334876.869099276
 20
256625.1277013395
 10
1341783.916810999
 20
256625.1277013395
  0
TEXT
  5
471
330
2
100
AcDbEntity
  8
TEXT
100
AcDbText
 10
1335437.167768242
 20
256818.3236604482
 30
0.0
 40
127.4
  1
OÙNG NÖÔÙC THAÛI
  7
TEXT-STYLE01
100
AcDbText
  0
TEXT
  5
472
330
2
100
AcDbEntity
  8
TEXT
100
AcDbText
 10
1327745.844962833
 20
249463.3352958736
 30
0.0
 40
450.0
  1
%%u MÆT B»NG THO¸T N¦íC TÇNG HÇM 
  7
STYLE3
100
AcDbText
  0
DIMENSION
  5
474
330
2
100
AcDbEntity
  8
DIM
 48
5.0
100
AcDbDimension
  2
*D25
 10
1324290.010127017
 20
252352.7726418804
 30
0.0
 11
1323285.010127017
 21
252545.1193085471
 31
0.0
 70
    32
 71
     5
 42
2010.0
  3
1-100
100
AcDbAlignedDimension
 13
1322280.010127017
 23
252833.504337628
 33
0.0
 14
1324290.010127017
 24
252833.504337628
 34
0.0
100
AcDbRotatedDimension
1001
ACAD
1000
DSTYLE
1002
{
1070
    40
1040
1.0
1002
}
1000
RTMaterial
1005
0
  0
DIMENSION
  5
488
330
2
100
AcDbEntity
  8
DIM
 48
5.0
100
AcDbDimension
  2
*D26
 10
1326600.010127017
 20
252352.7726418804
 30
0.0
 11
1325445.010127017
 21
252545.1193085471
 31
0.0
 70
    32
 71
     5
 42
2310.0
  3
1-100
100
AcDbAlignedDimension
 13
1324290.010127017
 23
252833.504337628
 33
0.0
 14
1326600.010127017
 24
252833.504337628
 34
0.0
100
AcDbRotatedDimension
1001
ACAD
1000
DSTYLE
1002
{
1070
    40
1040
1.0
1002
}
1000
RTMaterial
1005
0
  0
DIMENSION
  5
495
330
2
100
AcDbEntity
  8
DIM
 48
5.0
100
AcDbDimension
  2
*D27
 10
1329187.510127017
 20
252352.7726418804
 30
0.0
 11
1327893.760127017
 21
252545.1193085471
 31
0.0
 70
    32
 71
     5
 42
2587.5
  3
1-100
100
AcDbAlignedDimension
 13
1326600.010127017
 23
252833.504337628
 33
0.0
 14
1329187.510127017
 24
252833.504337628
 34
0.0
100
AcDbRotatedDimension
1001
ACAD
1000
DSTYLE
1002
{
1070
    40
1040
1.0
1002
}
1000
RTMaterial
1005
0
  0
DIMENSION
  5
4A2
330
2
100
AcDbEntity
  8
DIM
 48
5.0
100
AcDbDimension
  2
*D28
 10
1332060.010127017
 20
252352.7726418804
 30
0.0
 11
1330623.760127017
 21
252545.1193085471
 31
0.0
 70
    32
 71
     5
 42
2872.5
  3
1-100
100
AcDbAlignedDimension
 13
1329187.510127017
 23
252833.504337628
 33
0.0
 14
1332060.010127017
 24
252833.504337628
 34
0.0
100
AcDbRotatedDimension
1001
ACAD
1000
DSTYLE
1002
{
1070
    40
1040
1.0
1002
}
1000
RTMaterial
1005
0
  0
DIMENSION
  5
4AF
330
2
100
AcDbEntity
  8
DIM
 48
5.0
100
AcDbDimension
  2
*D29
 10
1334647.510127017
 20
252352.7726418804
 30
0.0
 11
1333353.760127017
 21
252545.1193085471
 31
0.0
 70
    32
 71
     5
 42
2587.5
  3
1-100
100
AcDbAlignedDimension
 13
1332060.010127017
 23
252833.504337628
 33
0.0
 14
1334647.510127017
 24
252833.504337628
 34
0.0
100
AcDbRotatedDimension
1001
ACAD
1000
DSTYLE
1002
{
1070
    40
1040
1.0
1002
}
1000
RTMaterial
1005
0
  0
DIMENSION
  5
4BC
330
2
100
AcDbEntity
  8
DIM
 48
5.0
100
AcDbDimension
  2
*D30
 10
1336957.510127017
 20
252352.7726418804
 30
0.0
 11
1335802.510127017
 21
252545.1193085471
 31
0.0
 70
    32
  1
<>
 71
     5
 42
2310.0
  3
1-100
100
AcDbAlignedDimension
 13
1334647.510127017
 23
252833.504337628
 33
0.0
 14
1336957.510127017
 24
252833.504337628
 34
0.0
100
AcDbRotatedDimension
1001
ACAD
1000
DSTYLE
1002
{
1070
    40
1040
1.0
1002
}
1000
RTMaterial
1005
0
  0
DIMENSION
  5
4C9
330
2
100
AcDbEntity
  8
DIM
 48
5.0
100
AcDbDimension
  2
*D31
 10
1338967.510127017
 20
252352.7726418804
 30
0.0
 11
1337962.510127017
 21
252545.1193085471
 31
0.0
 70
    32
 71
     5
 42
2010.0
  3
1-100
100
AcDbAlignedDimension
 13
1336957.510127017
 23
252833.504337628
 33
0.0
 14
1338967.510127017
 24
252833.504337628
 34
0.0
100
AcDbRotatedDimension
1001
ACAD
1000
DSTYLE
1002
{
1070
    40
1040
1.0
1002
}
1000
RTMaterial
1005
0
  0
DIMENSION
  5
4D6
330
2
100
AcDbEntity
  8
DIM
 48
5.0
100
AcDbDimension
  2
*D32
 10
1341167.510127017
 20
251888.7327163576
 30
0.0
 11
1330260.217821515
 21
252081.0793830243
 31
0.0
 70
    32
 71
     5
 42
21814.58461100469
  3
1-100
100
AcDbAlignedDimension
 13
1319352.925516012
 23
252833.504337628
 33
0.0
 14
1341167.510127017
 24
252833.504337628
 34
0.0
100
AcDbRotatedDimension
1001
ACAD
1000
DSTYLE
1002
{
1070
    40
1040
1.0
1002
}
1000
RTMaterial
1005
0
  0
DIMENSION
  5
4E3
330
2
100
AcDbEntity
  8
DIM
 48
5.0
100
AcDbDimension
  2
*D33
 10
1341167.510127017
 20
252352.7726418804
 30
0.0
 11
1340067.510127017
 21
252545.1193085471
 31
0.0
 70
    32
 71
     5
 42
2200.0
  3
1-100
100
AcDbAlignedDimension
 13
1338967.510127017
 23
252833.504337628
 33
0.0
 14
1341167.510127017
 24
252833.504337628
 34
0.0
100
AcDbRotatedDimension
1001
ACAD
1000
DSTYLE
1002
{
1070
    40
1040
1.0
1002
}
1000
RTMaterial
1005
0
  0
DIMENSION
  5
4F0
330
2
100
AcDbEntity
  8
DIM
 48
5.0
100
AcDbDimension
  2
*D34
 10
1319352.925516012
 20
252352.7726418804
 30
0.0
 11
1320816.467821514
 21
252545.1193085471
 31
0.0
 70
    32
 71
     5
 42
2927.084611004218
  3
1-100
100
AcDbAlignedDimension
 13
1322280.010127017
 23
252833.504337628
 33
0.0
 14
1319352.925516012
 24
252833.504337628
 34
0.0
 50
180.0
100
AcDbRotatedDimension
1001
ACAD
1000
DSTYLE
1002
{
1070
    40
1040
1.0
1002
}
1000
RTMaterial
1005
0
  0
INSERT
  5
4FD
330
2
100
AcDbEntity
  8
NET 02
100
AcDbBlockReference
  2
tron
 10
993970.7653722697
 20
147425.4797301095
 30
0.0
 41
0.75
 42
0.75
 43
0.75
  0
TEXT
  5
50A
330
2
100
AcDbEntity
  8
TEXT
100
AcDbText
 10
1322170.01938697
 20
251306.4160709176
 30
0.0
 40
277.1366400000001
  1
2
  7
CHULON
100
AcDbText
  0
INSERT
  5
50B
330
2
100
AcDbEntity
  8
NET 02
100
AcDbBlockReference
  2
tron
 10
995980.7653722696
 20
147425.4797301095
 30
0.0
 41
0.75
 42
0.75
 43
0.75
  0
TEXT
  5
50C
330
2
100
AcDbEntity
  8
TEXT
100
AcDbText
 10
1324180.01938697
 20
251306.4160709176
 30
0.0
 40
277.1366400000001
  1
3
  7
CHULON
100
AcDbText
  0
INSERT
  5
50D
330
2
100
AcDbEntity
  8
NET 02
100
AcDbBlockReference
  2
tron
 10
998290.7653722696
 20
147425.4797301095
 30
0.0
 41
0.75
 42
0.75
 43
0.75
  0
TEXT
  5
50E
330
2
100
AcDbEntity
  8
TEXT
100
AcDbText
 10
1326490.01938697
 20
251306.4160709176
 30
0.0
 40
277.1366400000001
  1
4
  7
CHULON
100
AcDbText
  0
INSERT
  5
50F
330
2
100
AcDbEntity
  8
NET 02
100
AcDbBlockReference
  2
tron
 10
1000878.265372269
 20
147425.4797301095
 30
0.0
 41
0.75
 42
0.75
 43
0.75
  0
TEXT
  5
510
330
2
100
AcDbEntity
  8
TEXT
100
AcDbText
 10
1329077.51938697
 20
251306.4160709176
 30
0.0
 40
277.1366400000001
  1
5
  7
CHULON
100
AcDbText
  0
INSERT
  5
511
330
2
100
AcDbEntity
  8
NET 02
100
AcDbBlockReference
  2
tron
 10
1003750.765372269
 20
147425.4797301095
 30
0.0
 41
0.75
 42
0.75
 43
0.75
  0
TEXT
  5
512
330
2
100
AcDbEntity
  8
TEXT
100
AcDbText
 10
1331950.01938697
 20
251306.4160709176
 30
0.0
 40
277.1366400000001
  1
6
  7
CHULON
100
AcDbText
  0
INSERT
  5
513
330
2
100
AcDbEntity
  8
NET 02
100
AcDbBlockReference
  2
tron
 10
1006338.265372269
 20
147425.4797301095
 30
0.0
 41
0.75
 42
0.75
 43
0.75
  0
TEXT
  5
514
330
2
100
AcDbEntity
  8
TEXT
100
AcDbText
 10
1334537.51938697
 20
251306.4160709176
 30
0.0
 40
277.1366400000001
  1
7
  7
CHULON
100
AcDbText
  0
INSERT
  5
515
330
2
100
AcDbEntity
  8
NET 02
100
AcDbBlockReference
  2
tron
 10
1008648.265372269
 20
147425.4797301095
 30
0.0
 41
0.75
 42
0.75
 43
0.75
  0
TEXT
  5
516
330
2
100
AcDbEntity
  8
TEXT
100
AcDbText
 10
1336847.51938697
 20
251306.4160709176
 30
0.0
 40
277.1366400000001
  1
8
  7
CHULON
100
AcDbText
  0
INSERT
  5
517
330
2
100
AcDbEntity
  8
NET 02
100
AcDbBlockReference
  2
tron
 10
1010658.265372269
 20
147425.4797301095
 30
0.0
 41
0.75
 42
0.75
 43
0.75
  0
TEXT
  5
518
330
2
100
AcDbEntity
  8
TEXT
100
AcDbText
 10
1338857.51938697
 20
251306.4160709176
 30
0.0
 40
277.1366400000001
  1
9
  7
CHULON
100
AcDbText
  0
DIMENSION
  5
519
330
2
100
AcDbEntity
  8
DIM
 48
5.0
100
AcDbDimension
  2
*D35
 10
1344134.060880499
 20
258400.6632895709
 30
0.0
 11
1343941.714213833
 21
257884.5783893307
 31
0.0
 70
   160
 71
     5
 42
2009.999999702792
  3
1-100
100
AcDbAlignedDimension
 13
1343652.013863444
 23
256390.663289868
 33
0.0
 14
1343652.013863444
 24
258400.6632895709
 34
0.0
 50
90.0
100
AcDbRotatedDimension
1001
ACAD
1000
DSTYLE
1002
{
1070
    40
1040
1.0
1002
}
1000
RTMaterial
1005
0
  0
DIMENSION
  5
526
330
2
100
AcDbEntity
  8
DIM
 48
5.0
100
AcDbDimension
  2
*D36
 10
1344134.060880499
 20
260710.6632895709
 30
0.0
 11
1343941.714213833
 21
259555.6632895711
 31
0.0
 70
    32
 71
     5
 42
2310.0
  3
1-100
100
AcDbAlignedDimension
 13
1343652.013863444
 23
258400.6632895709
 33
0.0
 14
1343652.013863444
 24
260710.6632895709
 34
0.0
 50
90.0
100
AcDbRotatedDimension
1001
ACAD
1000
DSTYLE
1002
{
1070
    40
1040
1.0
1002
}
1000
RTMaterial
1005
0
  0
DIMENSION
  5
533
330
2
100
AcDbEntity
  8
DIM
 48
5.0
100
AcDbDimension
  2
*D37
 10
1344134.060880499
 20
263298.1632895708
 30
0.0
 11
1343941.714213833
 21
262004.413289571
 31
0.0
 70
    32
 71
     5
 42
2587.5
  3
1-100
100
AcDbAlignedDimension
 13
1343652.013863444
 23
260710.6632895709
 33
0.0
 14
1343652.013863444
 24
263298.1632895708
 34
0.0
 50
90.0
100
AcDbRotatedDimension
1001
ACAD
1000
DSTYLE
1002
{
1070
    40
1040
1.0
1002
}
1000
RTMaterial
1005
0
  0
DIMENSION
  5
540
330
2
100
AcDbEntity
  8
DIM
 48
5.0
100
AcDbDimension
  2
*D38
 10
1344134.060880499
 20
265608.1632895709
 30
0.0
 11
1343941.714213833
 21
264453.1632895711
 31
0.0
 70
    32
 71
     5
 42
2310.0
  3
1-100
100
AcDbAlignedDimension
 13
1343652.013863444
 23
263298.1632895708
 33
0.0
 14
1343652.013863444
 24
265608.1632895709
 34
0.0
 50
90.0
100
AcDbRotatedDimension
1001
ACAD
1000
DSTYLE
1002
{
1070
    40
1040
1.0
1002
}
1000
RTMaterial
1005
0
  0
DIMENSION
  5
54D
330
2
100
AcDbEntity
  8
DIM
 48
5.0
100
AcDbDimension
  2
*D39
 10
1344134.060880499
 20
267618.1632895709
 30
0.0
 11
1343941.714213833
 21
266613.1632895711
 31
0.0
 70
    32
 71
     5
 42
2010.0
  3
1-100
100
AcDbAlignedDimension
 13
1343652.013863444
 23
265608.1632895709
 33
0.0
 14
1343652.013863444
 24
267618.1632895709
 34
0.0
 50
90.0
100
AcDbRotatedDimension
1001
ACAD
1000
DSTYLE
1002
{
1070
    40
1040
1.0
1002
}
1000
RTMaterial
1005
0
  0
DIMENSION
  5
55A
330
2
100
AcDbEntity
  8
DIM
 48
5.0
100
AcDbDimension
  2
*D40
 10
1344511.255763401
 20
256390.663289868
 30
0.0
 11
1344318.909096734
 21
262593.6935633168
 31
0.0
 70
    32
 71
     5
 42
12406.06054689712
  3
1-100
100
AcDbAlignedDimension
 13
1343652.013863444
 23
268796.7238367652
 33
0.0
 14
1343652.013863444
 24
256390.663289868
 34
0.0
 50
90.0
100
AcDbRotatedDimension
1001
ACAD
1000
DSTYLE
1002
{
1070
    40
1040
1.0
1002
}
1000
RTMaterial
1005
0
  0
INSERT
  5
567
330
2
100
AcDbEntity
  8
NET 02
100
AcDbBlockReference
  2
tron
 10
1016649.652067417
 20
152374.8713623823
 30
0.0
 41
0.75
 42
0.75
 43
0.75
  0
TEXT
  5
568
330
2
100
AcDbEntity
  8
TEXT
100
AcDbText
 10
1344848.906082117
 20
256255.8077031904
 30
0.0
 40
277.1366400000001
  1
A
  7
CHULON
100
AcDbText
  0
INSERT
  5
569
330
2
100
AcDbEntity
  8
NET 02
100
AcDbBlockReference
  2
tron
 10
1016649.652067417
 20
154384.8713620851
 30
0.0
 41
0.75
 42
0.75
 43
0.75
  0
TEXT
  5
56A
330
2
100
AcDbEntity
  8
TEXT
100
AcDbText
 10
1344848.906082117
 20
258265.8077028932
 30
0.0
 40
277.1366400000001
  1
B
  7
CHULON
100
AcDbText
  0
INSERT
  5
56B
330
2
100
AcDbEntity
  8
NET 02
100
AcDbBlockReference
  2
tron
 10
1016649.652067417
 20
156694.8713620851
 30
0.0
 41
0.75
 42
0.75
 43
0.75
  0
TEXT
  5
56C
330
2
100
AcDbEntity
  8
TEXT
100
AcDbText
 10
1344848.906082117
 20
260575.8077028932
 30
0.0
 40
277.1366400000001
  1
C
  7
CHULON
100
AcDbText
  0
INSERT
  5
56D
330
2
100
AcDbEntity
  8
NET 02
100
AcDbBlockReference
  2
tron
 10
1016649.652067417
 20
159282.3713620851
 30
0.0
 41
0.75
 42
0.75
 43
0.75
  0
TEXT
  5
56E
330
2
100
AcDbEntity
  8
TEXT
100
AcDbText
 10
1344848.906082117
 20
263163.3077028932
 30
0.0
 40
277.1366400000001
  1
D
  7
CHULON
100
AcDbText
  0
INSERT
  5
56F
330
2
100
AcDbEntity
  8
NET 02
100
AcDbBlockReference
  2
tron
 10
1016649.652067417
 20
161592.3713620851
 30
0.0
 41
0.75
 42
0.75
 43
0.75
  0
TEXT
  5
570
330
2
100
AcDbEntity
  8
TEXT
100
AcDbText
 10
1344848.906082117
 20
265473.3077028932
 30
0.0
 40
277.1366400000001
  1
E
  7
CHULON
100
AcDbText
  0
INSERT
  5
571
330
2
100
AcDbEntity
  8
NET 02
100
AcDbBlockReference
  2
tron
 10
1016649.652067417
 20
163602.3713620851
 30
0.0
 41
0.75
 42
0.75
 43
0.75
  0
TEXT
  5
572
330
2
100
AcDbEntity
  8
TEXT
100
AcDbText
 10
1344848.906082117
 20
267483.3077028932
 30
0.0
 40
277.1366400000001
  1
F
  7
CHULON
100
AcDbText
  0
LINE
  5
573
330
2
100
AcDbEntity
  8
cat m
 48
3.0
100
AcDbLine
 10
1343563.186434251
 20
262440.1413376997
 30
0.0
 11
1343563.186434251
 21
262331.6480868163
 31
0.0
  0
LINE
  5
574
330
2
100
AcDbEntity
  8
thay m
 48
0.13
370
    13
100
AcDbLine
 10
1343515.050015289
 20
261862.9205363246
 30
0.0
 11
1343515.050015289
 21
262463.600690171
 31
0.0
  0
INSERT
  5
575
330
2
100
AcDbEntity
  8
NET 02
100
AcDbBlockReference
  2
tron
 10
991043.6807612651
 20
147425.4797301095
 30
0.0
 41
0.75
 42
0.75
 43
0.75
  0
TEXT
  5
576
330
2
100
AcDbEntity
  8
TEXT
100
AcDbText
 10
1319242.934775965
 20
251306.4160709176
 30
0.0
 40
277.1366400000001
  1
1
  7
CHULON
100
AcDbText
  0
INSERT
  5
577
330
2
100
AcDbEntity
  8
NET 02
100
AcDbBlockReference
  2
tron
 10
1016650.399520883
 20
164780.9319092791
 30
0.0
 41
0.75
 42
0.75
 43
0.75
  0
TEXT
  5
578
330
2
100
AcDbEntity
  8
TEXT
100
AcDbText
 10
1344849.653535583
 20
268661.8682500871
 30
0.0
 40
277.1366400000001
  1
G
  7
CHULON
100
AcDbText
  0
INSERT
  5
579
330
2
100
AcDbEntity
  8
NET 02
100
AcDbBlockReference
  2
tron
 10
1012858.26537227
 20
147425.2997301096
 30
0.0
 41
0.75
 42
0.75
 43
0.75
  0
TEXT
  5
57A
330
2
100
AcDbEntity
  8
TEXT
100
AcDbText
 10
1340940.413079567
 20
251306.2360709176
 30
0.0
 40
277.1366400000001
  1
10
  7
CHULON
100
AcDbText
  0
ENDSEC
  0
SECTION
  2
OBJECTS
  0
DICTIONARY
  5
B
330
0
100
AcDbDictionary
281
     1
  3
ACAD_COLOR
350
49
  3
ACAD_GROUP
350
46
  3
ACAD_LAYOUT
350
15
  3
ACAD_MATERIAL
350
A
  3
ACAD_MLINESTYLE
350
47
  3
ACAD_PLOTSETTINGS
350
48
  3
ACAD_PLOTSTYLENAME
350
10
  3
ACAD_VISUALSTYLE
350
2F
  3
ASE_INDEX_DICTIONARY
350
647
  0
DICTIONARY
  5
2C
330
2A
100
AcDbDictionary
280
     1
281
     1
  3
ACAD_XREC_ROUNDTRIP
360
2D
  0
DICTIONARY
  5
1C
330
1B
100
AcDbDictionary
280
     1
281
     1
  3
ACAD_LAYERFILTERS
360
1D
  3
ACAD_LAYERSTATES
360
1E
  3
ACLYDICTIONARY
360
20
  0
DICTIONARY
  5
7
330
6
100
AcDbDictionary
280
     1
281
     1
  3
ACAD_XREC_ROUNDTRIP
360
8
  3
ADSK_XREC_LAYER_RECONCILED
360
E
  0
DICTIONARY
  5
3A
330
39
100
AcDbDictionary
280
     1
281
     1
  3
ACAD_XREC_ROUNDTRIP
360
3B
  3
ADSK_XREC_LAYER_RECONCILED
360
3C
  0
DICTIONARY
  5
483
330
482
100
AcDbDictionary
280
     1
281
     1
  3
ACAD_XREC_ROUNDTRIP
360
484
  0
DICTIONARY
  5
4FF
330
4FE
100
AcDbDictionary
280
     1
281
     1
  3
ACAD_XREC_ROUNDTRIP
360
500
  3
ADSK_XREC_LAYER_RECONCILED
360
501
  0
DICTIONARY
  5
174
330
173
100
AcDbDictionary
280
     1
281
     1
  3
ACAD_XREC_ROUNDTRIP
360
175
  3
ADSK_XREC_LAYER_RECONCILED
360
176
  0
DICTIONARY
  5
5A
330
59
100
AcDbDictionary
280
     1
281
     1
  3
ACAD_XREC_ROUNDTRIP
360
5B
  3
ADSK_XREC_LAYER_RECONCILED
360
5C
  0
DICTIONARY
  5
476
330
475
100
AcDbDictionary
280
     1
281
     1
  3
ACAD_XREC_ROUNDTRIP
360
477
  3
ADSK_XREC_LAYER_RECONCILED
360
478
  0
DICTIONARY
  5
7B
330
7A
100
AcDbDictionary
280
     1
281
     1
  3
ACAD_XREC_ROUNDTRIP
360
7C
  3
ADSK_XREC_LAYER_RECONCILED
360
7D
  0
DICTIONARY
  5
8C
330
8B
100
AcDbDictionary
280
     1
281
     1
  3
ACAD_XREC_ROUNDTRIP
360
8D
  3
ADSK_XREC_LAYER_RECONCILED
360
8E
  0
DICTIONARY
  5
16F
330
16E
100
AcDbDictionary
280
     1
281
     1
  3
ACAD_XREC_ROUNDTRIP
360
170
  3
ADSK_XREC_LAYER_RECONCILED
360
171
  0
DICTIONARY
  5
52
330
51
100
AcDbDictionary
280
     1
281
     1
  3
ACAD_XREC_ROUNDTRIP
360
53
  3
ADSK_XREC_LAYER_RECONCILED
360
54
  0
DICTIONARY
  5
17A
330
179
100
AcDbDictionary
280
     1
281
     1
  3
ACAD_XREC_ROUNDTRIP
360
17B
  3
ADSK_XREC_LAYER_RECONCILED
360
17C
  0
DICTIONARY
  5
4B
330
4A
100
AcDbDictionary
280
     1
281
     1
  3
ACAD_XREC_ROUNDTRIP
360
4C
  3
ADSK_XREC_LAYER_RECONCILED
360
4D
  0
DICTIONARY
  5
3DD
330
3DC
100
AcDbDictionary
280
     1
281
     1
  3
ACAD_XREC_ROUNDTRIP
360
3DE
  3
ADSK_XREC_LAYER_RECONCILED
360
3DF
  0
DICTIONARY
  5
100
330
FF
100
AcDbDictionary
280
     1
281
     1
  3
ACAD_XREC_ROUNDTRIP
360
101
  3
ADSK_XREC_LAYER_RECONCILED
360
102
  0
DICTIONARY
  5
75
330
74
100
AcDbDictionary
280
     1
281
     1
  3
ACAD_XREC_ROUNDTRIP
360
76
  3
ADSK_XREC_LAYER_RECONCILED
360
77
  0
DICTIONARY
  5
3D0
330
3CF
100
AcDbDictionary
280
     1
281
     1
  3
ACAD_XREC_ROUNDTRIP
360
3D1
  3
ADSK_XREC_LAYER_RECONCILED
360
3D2
  0
DICTIONARY
  5
3CA
330
3C9
100
AcDbDictionary
280
     1
281
     1
  3
ACAD_XREC_ROUNDTRIP
360
3CB
  3
ADSK_XREC_LAYER_RECONCILED
360
3CC
  0
DICTIONARY
  5
30D
330
30C
100
AcDbDictionary
280
     1
281
     1
  3
ACAD_XREC_ROUNDTRIP
360
30E
  3
ADSK_XREC_LAYER_RECONCILED
360
30F
  0
DICTIONARY
  5
182
330
181
100
AcDbDictionary
280
     1
281
     1
  3
ACAD_XREC_ROUNDTRIP
360
183
  3
ADSK_XREC_LAYER_RECONCILED
360
184
  0
DICTIONARY
  5
169
330
168
100
AcDbDictionary
280
     1
281
     1
  3
ACAD_XREC_ROUNDTRIP
360
16A
  3
ADSK_XREC_LAYER_RECONCILED
360
16B
  0
DICTIONARY
  5
3
330
2
100
AcDbDictionary
280
     1
281
     1
  3
ACAD_SORTENTS
360
4
  0
DICTIONARY
  5
35
330
34
100
AcDbDictionary
280
     1
281
     1
  3
ACAD_SORTENTS
360
36
  0
DICTIONARY
  5
187
330
186
100
AcDbDictionary
280
     1
281
     1
  3
ACAD_SORTENTS
360
188
  0
DICTIONARY
  5
459
330
458
100
AcDbDictionary
280
     1
281
     1
  3
ACAD_SORTENTS
360
45A
  0
DICTIONARY
  5
3E4
330
3E3
100
AcDbDictionary
280
     1
281
     1
  3
ACAD_SORTENTS
360
3E5
  0
DICTIONARY
  5
49
102
{ACAD_REACTORS
330
B
102
}
330
B
100
AcDbDictionary
281
     1
  0
DICTIONARY
  5
46
102
{ACAD_REACTORS
330
B
102
}
330
B
100
AcDbDictionary
281
     1
  0
DICTIONARY
  5
15
102
{ACAD_REACTORS
330
B
102
}
330
B
100
AcDbDictionary
281
     1
  3
Layout1
350
1A
  3
Model
350
14
  0
DICTIONARY
  5
A
102
{ACAD_REACTORS
330
B
102
}
330
B
100
AcDbDictionary
281
     1
  3
Global
350
9
  0
DICTIONARY
  5
47
102
{ACAD_REACTORS
330
B
102
}
330
B
100
AcDbDictionary
281
     1
  3
STANDARD
350
4F
  0
DICTIONARY
  5
48
102
{ACAD_REACTORS
330
B
102
}
330
B
100
AcDbDictionary
281
     1
  0
ACDBDICTIONARYWDFLT
  5
10
102
{ACAD_REACTORS
330
B
102
}
330
B
100
AcDbDictionary
281
     1
  3
Normal
350
F
100
AcDbDictionaryWithDefault
340
F
  0
DICTIONARY
  5
2F
102
{ACAD_REACTORS
330
B
102
}
330
B
100
AcDbDictionary
281
     1
  3
2dWireframe
350
2E
  0
DICTIONARY
  5
647
102
{ACAD_REACTORS
330
B
102
}
330
B
100
AcDbDictionary
281
     1
  3
ASEBlockHierarchyIndexRecord
350
649
1001
DCO15
1040
1665234817.734
  0
XRECORD
  5
2D
102
{ACAD_REACTORS
330
2C
102
}
330
2C
100
AcDbXrecord
280
     1
102
VTR_0.000_0.000_1.000_1.000_VISUALSTYLE
340
2E
102
VTR_0.000_0.000_1.000_1.000_GRIDDISPLAY
 70
     3
102
VTR_0.000_0.000_1.000_1.000_GRIDMAJOR
 70
     5
102
VTR_0.000_0.000_1.000_1.000_DEFAULTLIGHTING
280
     1
102
VTR_0.000_0.000_1.000_1.000_DEFAULTLIGHTINGTYPE
 70
     1
102
VTR_0.000_0.000_1.000_1.000_BRIGHTNESS
141
0.0
102
VTR_0.000_0.000_1.000_1.000_CONTRAST
142
0.0
  0
DICTIONARY
  5
1D
102
{ACAD_REACTORS
330
1C
102
}
330
1C
100
AcDbDictionary
281
     1
  0
DICTIONARY
  5
1E
102
{ACAD_REACTORS
330
1C
102
}
330
1C
100
AcDbDictionary
281
     1
1001
AcLayerTools
1000
163B
1000
0
  0
DICTIONARY
  5
20
102
{ACAD_REACTORS
330
1C
102
}
330
1C
100
AcDbDictionary
281
     1
1001
ACAD
1000
<All
  0
XRECORD
  5
8
102
{ACAD_REACTORS
330
7
102
}
330
7
100
AcDbXrecord
280
     1
102
MATERIAL
340
9
  0
XRECORD
  5
E
102
{ACAD_REACTORS
330
7
102
}
330
7
100
AcDbXrecord
280
     1
290
     1
  0
XRECORD
  5
3B
102
{ACAD_REACTORS
330
3A
102
}
330
3A
100
AcDbXrecord
280
     1
102
MATERIAL
340
9
  0
XRECORD
  5
3C
102
{ACAD_REACTORS
330
3A
102
}
330
3A
100
AcDbXrecord
280
     1
290
     1
  0
XRECORD
  5
484
102
{ACAD_REACTORS
330
483
102
}
330
483
100
AcDbXrecord
280
     1
102
MATERIAL
340
9
  0
XRECORD
  5
500
102
{ACAD_REACTORS
330
4FF
102
}
330
4FF
100
AcDbXrecord
280
     1
102
MATERIAL
340
9
  0
XRECORD
  5
501
102
{ACAD_REACTORS
330
4FF
102
}
330
4FF
100
AcDbXrecord
280
     1
290
     1
  0
XRECORD
  5
175
102
{ACAD_REACTORS
330
174
102
}
330
174
100
AcDbXrecord
280
     1
102
MATERIAL
340
9
  0
XRECORD
  5
176
102
{ACAD_REACTORS
330
174
102
}
330
174
100
AcDbXrecord
280
     1
290
     1
  0
XRECORD
  5
5B
102
{ACAD_REACTORS
330
5A
102
}
330
5A
100
AcDbXrecord
280
     1
102
MATERIAL
340
9
  0
XRECORD
  5
5C
102
{ACAD_REACTORS
330
5A
102
}
330
5A
100
AcDbXrecord
280
     1
290
     1
  0
XRECORD
  5
477
102
{ACAD_REACTORS
330
476
102
}
330
476
100
AcDbXrecord
280
     1
102
MATERIAL
340
9
  0
XRECORD
  5
478
102
{ACAD_REACTORS
330
476
102
}
330
476
100
AcDbXrecord
280
     1
290
     1
  0
XRECORD
  5
7C
102
{ACAD_REACTORS
330
7B
102
}
330
7B
100
AcDbXrecord
280
     1
102
MATERIAL
340
9
  0
XRECORD
  5
7D
102
{ACAD_REACTORS
330
7B
102
}
330
7B
100
AcDbXrecord
280
     1
290
     1
  0
XRECORD
  5
8D
102
{ACAD_REACTORS
330
8C
102
}
330
8C
100
AcDbXrecord
280
     1
102
MATERIAL
340
9
  0
XRECORD
  5
8E
102
{ACAD_REACTORS
330
8C
102
}
330
8C
100
AcDbXrecord
280
     1
290
     1
  0
XRECORD
  5
170
102
{ACAD_REACTORS
330
16F
102
}
330
16F
100
AcDbXrecord
280
     1
102
MATERIAL
340
9
  0
XRECORD
  5
171
102
{ACAD_REACTORS
330
16F
102
}
330
16F
100
AcDbXrecord
280
     1
290
     1
  0
XRECORD
  5
53
102
{ACAD_REACTORS
330
52
102
}
330
52
100
AcDbXrecord
280
     1
102
MATERIAL
340
9
  0
XRECORD
  5
54
102
{ACAD_REACTORS
330
52
102
}
330
52
100
AcDbXrecord
280
     1
290
     1
  0
XRECORD
  5
17B
102
{ACAD_REACTORS
330
17A
102
}
330
17A
100
AcDbXrecord
280
     1
102
MATERIAL
340
9
  0
XRECORD
  5
17C
102
{ACAD_REACTORS
330
17A
102
}
330
17A
100
AcDbXrecord
280
     1
290
     1
  0
XRECORD
  5
4C
102
{ACAD_REACTORS
330
4B
102
}
330
4B
100
AcDbXrecord
280
     1
102
MATERIAL
340
9
  0
XRECORD
  5
4D
102
{ACAD_REACTORS
330
4B
102
}
330
4B
100
AcDbXrecord
280
     1
290
     1
  0
XRECORD
  5
3DE
102
{ACAD_REACTORS
330
3DD
102
}
330
3DD
100
AcDbXrecord
280
     1
102
MATERIAL
340
9
  0
XRECORD
  5
3DF
102
{ACAD_REACTORS
330
3DD
102
}
330
3DD
100
AcDbXrecord
280
     1
290
     1
  0
XRECORD
  5
101
102
{ACAD_REACTORS
330
100
102
}
330
100
100
AcDbXrecord
280
     1
102
MATERIAL
340
9
  0
XRECORD
  5
102
102
{ACAD_REACTORS
330
100
102
}
330
100
100
AcDbXrecord
280
     1
290
     1
  0
XRECORD
  5
76
102
{ACAD_REACTORS
330
75
102
}
330
75
100
AcDbXrecord
280
     1
102
MATERIAL
340
9
  0
XRECORD
  5
77
102
{ACAD_REACTORS
330
75
102
}
330
75
100
AcDbXrecord
280
     1
290
     1
  0
XRECORD
  5
3D1
102
{ACAD_REACTORS
330
3D0
102
}
330
3D0
100
AcDbXrecord
280
     1
102
MATERIAL
340
9
  0
XRECORD
  5
3D2
102
{ACAD_REACTORS
330
3D0
102
}
330
3D0
100
AcDbXrecord
280
     1
290
     1
  0
XRECORD
  5
3CB
102
{ACAD_REACTORS
330
3CA
102
}
330
3CA
100
AcDbXrecord
280
     1
102
MATERIAL
340
9
  0
XRECORD
  5
3CC
102
{ACAD_REACTORS
330
3CA
102
}
330
3CA
100
AcDbXrecord
280
     1
290
     1
  0
XRECORD
  5
30E
102
{ACAD_REACTORS
330
30D
102
}
330
30D
100
AcDbXrecord
280
     1
102
MATERIAL
340
9
  0
XRECORD
  5
30F
102
{ACAD_REACTORS
330
30D
102
}
330
30D
100
AcDbXrecord
280
     1
290
     1
  0
XRECORD
  5
183
102
{ACAD_REACTORS
330
182
102
}
330
182
100
AcDbXrecord
280
     1
102
MATERIAL
340
9
  0
XRECORD
  5
184
102
{ACAD_REACTORS
330
182
102
}
330
182
100
AcDbXrecord
280
     1
290
     1
  0
XRECORD
  5
16A
102
{ACAD_REACTORS
330
169
102
}
330
169
100
AcDbXrecord
280
     1
102
MATERIAL
340
9
  0
XRECORD
  5
16B
102
{ACAD_REACTORS
330
169
102
}
330
169
100
AcDbXrecord
280
     1
290
     1
  0
SORTENTSTABLE
  5
4
102
{ACAD_REACTORS
330
3
102
}
330
3
100
AcDbSortentsTable
330
2
  0
SORTENTSTABLE
  5
36
102
{ACAD_REACTORS
330
35
102
}
330
35
100
AcDbSortentsTable
330
34
  0
SORTENTSTABLE
  5
188
102
{ACAD_REACTORS
330
187
102
}
330
187
100
AcDbSortentsTable
330
186
  0
SORTENTSTABLE
  5
45A
102
{ACAD_REACTORS
330
459
102
}
330
459
100
AcDbSortentsTable
330
458
  0
SORTENTSTABLE
  5
3E5
102
{ACAD_REACTORS
330
3E4
102
}
330
3E4
100
AcDbSortentsTable
330
3E3
  0
LAYOUT
  5
1A
102
{ACAD_REACTORS
330
15
102
}
330
15
100
AcDbPlotSettings
  1

  2
\\ANHHUNG\hp LaserJet 1010 Series Driver
  4

  6

 40
0.0
 41
0.0
 42
0.0
 43
0.0
 44
0.0
 45
0.0
 46
0.0
 47
0.0
 48
0.0
 49
0.0
140
0.0
141
0.0
142
1.0
143
1.0
 70
   688
 72
     0
 73
     0
 74
     5
  7
IN KET CAU.ctb
 75
    16
147
1.0
 76
     0
 77
     2
 78
   300
148
0.0
149
0.0
100
AcDbLayout
  1
Layout1
 70
     1
 71
     1
 10
0.0
 20
0.0
 11
12.0
 21
9.0
 12
0.0
 22
0.0
 32
0.0
 14
1.000000000000000E+20
 24
1.000000000000000E+20
 34
1.000000000000000E+20
 15
-1.000000000000000E+20
 25
-1.000000000000000E+20
 35
-1.000000000000000E+20
146
0.0
 13
0.0
 23
0.0
 33
0.0
 16
1.0
 26
0.0
 36
0.0
 17
0.0
 27
1.0
 37
0.0
 76
     0
330
17
  0
LAYOUT
  5
14
102
{ACAD_REACTORS
330
15
102
}
330
15
100
AcDbPlotSettings
  1

  2
\\Thang\hp LaserJet 1160
  4
A4
  6

 40
5.027082920074462
 41
5.069413661956787
 42
5.450408935546875
 43
5.027069091796875
 44
209.9733276367187
 45
296.9683227539062
 46
1.919051644298434
 47
0.0
 48
1314359.50420794
 49
247695.8559084689
140
1350889.21844504
141
272610.5392605406
142
1.0
143
127.3380971693859
 70
 11956
 72
     1
 73
     1
 74
     4
  7
IN KET CAU.ctb
 75
     0
147
0.0078531093382823
 76
     0
 77
     2
 78
   300
148
-1314359.50420794
149
-247695.8559084689
100
AcDbLayout
  1
Model
 70
     1
 71
     0
 10
0.0
 20
0.0
 11
12.0
 21
9.0
 12
0.0
 22
0.0
 32
0.0
 14
0.0
 24
0.0
 34
0.0
 15
0.0
 25
0.0
 35
0.0
146
0.0
 13
0.0
 23
0.0
 33
0.0
 16
1.0
 26
0.0
 36
0.0
 17
0.0
 27
1.0
 37
0.0
 76
     0
330
2
1001
ACAD_PSEXT
1000
\\Thang\hp LaserJet 1160
1000
hp LaserJet 1160
1000
\\Thang
1000

1070
     0
  0
MATERIAL
  5
9
102
{ACAD_XDICTIONARY
360
C
102
}
102
{ACAD_REACTORS
330
A
102
}
330
A
100
AcDbMaterial
  1
Global
  0
MLINESTYLE
  5
4F
102
{ACAD_REACTORS
330
47
102
}
330
47
100
AcDbMlineStyle
  2
STANDARD
 70
     0
  3

 62
   256
 51
90.0
 52
90.0
 71
     2
 49
0.5
 62
   256
  6
BYLAYER
 49
-0.5
 62
   256
  6
BYLAYER
  0
ACDBPLACEHOLDER
  5
F
102
{ACAD_REACTORS
330
10
102
}
330
10
  0
ACAD_PROXY_OBJECT
  5
2E
102
{ACAD_REACTORS
330
2F
102
}
330
2F
100
AcDbProxyObject
 90
      499
 91
      511
 95
       25
 70
     0
 93
      598
310
430C9915DA5C99599C985B59401049028333333333333E3BF0000000000000FB0201C00030C02405048070000C3008000000C800405A000000320014050640A01C00030C010500920280D0
 94
        0
1001
ACAD
1000
AcRTDxfName
1000
VISUALSTYLE
1000
AcDbSavedByObjectVersion
1070
     0
  0
XRECORD
  5
649
102
{ACAD_REACTORS
330
647
102
}
330
647
100
AcDbXrecord
280
     1
330
457
330
46B
330
46C
330
46D
330
46E
330
46F
330
4FD
330
50B
330
50D
330
50F
330
511
330
513
330
515
330
517
330
567
330
569
330
56B
330
56D
330
56F
330
571
330
575
330
577
330
579
330
2ED
330
2EE
330
2EF
330
2F5
330
2F9
330
2FD
330
303
330
305
330
307
330
308
330
3E2
330
FE
330
11C
330
17E
330
180
330
1C7
330
20B
330
210
330
213
330
216
330
68
330
58A
330
58B
330
596
330
597
330
5A2
330
5A3
330
5AE
330
5AF
330
5BA
330
5BB
330
5C6
330
5C7
330
5D2
330
5D3
330
5DE
330
5DF
330
5EA
330
5EB
330
5F6
330
5F7
330
603
330
604
330
60E
330
60F
330
61A
330
61B
330
626
330
627
330
632
330
633
330
63E
330
63F
  0
DICTIONARY
  5
C
330
9
100
AcDbDictionary
280
     1
281
     1
  3
ACAD_XREC_ROUNDTRIP
360
D
  0
XRECORD
  5
D
102
{ACAD_REACTORS
330
C
102
}
330
C
100
AcDbXrecord
280
     1
102
MATERIAL
148
0.0
149
0.0
149
0.0
 93
        0
 94
       63
282
     0
 72
     1
 77
     1
171
     1
175
     1
179
     1
273
     0
  0
ENDSEC
  0
EOF
