  0
SECTION
  2
HEADER
  0
ENDSEC
  0
SECTION
  2
TABLES
  0
TABLE
  2
LTYPE
 70
    22
  0
LTYPE
  2
CONTINUOUS
 70
    64
  3
Solid line
 72
    65
 73
     0
 40
0.000000
  0
LTYPE
  2
DASHED
 70
    64
  3
__ __ __ __ __ __ __ __ __ __ __ __ __ __ __
 72
    65
 73
     2
 40
3.500000
 49
2.000000
 49
-1.500000
  0
LTYPE
  2
CENTER
 70
    64
  3
____ _ ____ _ ____ _ ____ _ ____ _ ____ _ ____
 72
    65
 73
     4
 40
17.500000
 49
13.000000
 49
-1.500000
 49
1.500000
 49
-1.500000
  0
LTYPE
  2
PHANTOM
 70
    64
  3
_____ _ _ _____ _ _ _____ _ _ _____ _ _ ____  
 72
    65
 73
     6
 40
15.500000
 49
8.000000
 49
-1.500000
 49
1.500000
 49
-1.500000
 49
1.500000
 49
-1.500000
  0
LTYPE
  2
DOT
 70
    64
  3
. . . . . . . . . . . . . . . . . . . . . . . .
 72
    65
 73
     2
 40
0.25
 49
0.0
 49
-0.25
  0
ENDTAB
  0
TABLE
  2
LAYER
 70
     1
  0
LAYER
  2
0
 70
     0
 62
     7
  6
CONTINUOUS
  0
ENDTAB
  0
TABLE
  2
STYLE
 70
     1
  0
STYLE
  2
STANDARD
 70
     0
 40
0.000000
 41
1.000000
 50
0.000000
 71
     0
 42
0.200000
  3
txt
  4
BIGFONT
  0
ENDTAB
  0
TABLE
  2
VIEW
 70
     0
  0
ENDTAB
  0
ENDSEC
  0
SECTION
  2
BLOCKS
  0
BLOCK
  8
0
  6
CONTINUOUS
 62
     7
 70
    65
  2
*DIM0
 10
0
 20
0
  0
TEXT
  8
0
  6
CONTINUOUS
 62
     7
 10
0.75000054
 20
-6.785714
 40
4.999999
 41
1.0178573
  1
M22
 50
90.000003
  0
LINE
  8
0
  6
CONTINUOUS
 62
     7
 10
2
 20
11
 11
2
 21
0
  0
LINE
  8
0
  6
CONTINUOUS
 62
     7
 10
2
 20
11
 11
3
 21
8
  0
LINE
  8
0
  6
CONTINUOUS
 62
     7
 10
2
 20
11
 11
1
 21
8
  0
LINE
  8
0
  6
CONTINUOUS
 62
     7
 10
2
 20
-11
 11
2
 21
0
  0
LINE
  8
0
  6
CONTINUOUS
 62
     7
 10
2
 20
-11
 11
1
 21
-8
  0
LINE
  8
0
  6
CONTINUOUS
 62
     7
 10
2
 20
-11
 11
3
 21
-8
  0
LINE
  8
0
  6
CONTINUOUS
 62
     7
 10
-20
 20
11
 11
4.2860107
 21
11
  0
LINE
  8
0
  6
CONTINUOUS
 62
     7
 10
-20
 20
-11
 11
4.2860107
 21
-11
  0
ENDBLK
  8
0
  0
BLOCK
  8
0
  6
CONTINUOUS
 62
     7
 70
    65
  2
*DIM1
 10
0
 20
0
  0
TEXT
  8
0
  6
CONTINUOUS
 62
     7
 10
178.71429
 20
-39.75
 40
4.999999
 41
1.0285716
  1
32
  0
LINE
  8
0
  6
CONTINUOUS
 62
     7
 10
167
 20
-41
 11
183
 21
-41
  0
LINE
  8
0
  6
CONTINUOUS
 62
     7
 10
167
 20
-41
 11
170
 21
-40
  0
LINE
  8
0
  6
CONTINUOUS
 62
     7
 10
167
 20
-41
 11
170
 21
-42
  0
LINE
  8
0
  6
CONTINUOUS
 62
     7
 10
199
 20
-41
 11
183
 21
-41
  0
LINE
  8
0
  6
CONTINUOUS
 62
     7
 10
199
 20
-41
 11
196
 21
-42
  0
LINE
  8
0
  6
CONTINUOUS
 62
     7
 10
199
 20
-41
 11
196
 21
-40
  0
LINE
  8
0
  6
CONTINUOUS
 62
     7
 10
167
 20
-9.2871141
 11
167
 21
-43.285995
  0
LINE
  8
0
  6
CONTINUOUS
 62
     7
 10
199
 20
-9.2870789
 11
199
 21
-43.285995
  0
ENDBLK
  8
0
  0
BLOCK
  8
0
  6
CONTINUOUS
 62
     7
 70
    65
  2
*DIM2
 10
0
 20
0
  0
TEXT
  8
0
  6
CONTINUOUS
 62
     7
 10
-61.785714
 20
-39.75
 40
4.999999
 41
1.0285716
  1
79
  0
LINE
  8
0
  6
CONTINUOUS
 62
     7
 10
-97
 20
-41
 11
-57.5
 21
-41
  0
LINE
  8
0
  6
CONTINUOUS
 62
     7
 10
-97
 20
-41
 11
-94
 21
-40
  0
LINE
  8
0
  6
CONTINUOUS
 62
     7
 10
-97
 20
-41
 11
-94
 21
-42
  0
LINE
  8
0
  6
CONTINUOUS
 62
     7
 10
-18
 20
-41
 11
-57.5
 21
-41
  0
LINE
  8
0
  6
CONTINUOUS
 62
     7
 10
-18
 20
-41
 11
-21
 21
-42
  0
LINE
  8
0
  6
CONTINUOUS
 62
     7
 10
-18
 20
-41
 11
-21
 21
-40
  0
LINE
  8
0
  6
CONTINUOUS
 62
     7
 10
-97
 20
-13.893517
 11
-97
 21
-43.285995
  0
LINE
  8
0
  6
CONTINUOUS
 62
     7
 10
-18
 20
-9
 11
-18
 21
-43.285995
  0
ENDBLK
  8
0
  0
BLOCK
  8
0
  6
CONTINUOUS
 62
     7
 70
    65
  2
*DIM3
 10
0
 20
0
  0
TEXT
  8
0
  6
CONTINUOUS
 62
     7
 10
-54.785714
 20
-29.75
 40
4.999999
 41
1.0285716
  1
65
  0
LINE
  8
0
  6
CONTINUOUS
 62
     7
 10
-83
 20
-31
 11
-50.5
 21
-31
  0
LINE
  8
0
  6
CONTINUOUS
 62
     7
 10
-83
 20
-31
 11
-80
 21
-30
  0
LINE
  8
0
  6
CONTINUOUS
 62
     7
 10
-83
 20
-31
 11
-80
 21
-32
  0
LINE
  8
0
  6
CONTINUOUS
 62
     7
 10
-18
 20
-31
 11
-50.5
 21
-31
  0
LINE
  8
0
  6
CONTINUOUS
 62
     7
 10
-18
 20
-31
 11
-21
 21
-32
  0
LINE
  8
0
  6
CONTINUOUS
 62
     7
 10
-18
 20
-31
 11
-21
 21
-30
  0
LINE
  8
0
  6
CONTINUOUS
 62
     7
 10
-83
 20
-18.499954
 11
-83
 21
-33.285995
  0
ENDBLK
  8
0
  0
BLOCK
  8
0
  6
CONTINUOUS
 62
     7
 70
    65
  2
*DIM4
 10
0
 20
0
  0
TEXT
  8
0
  6
CONTINUOUS
 62
     7
 10
-94.285714
 20
-29.75
 40
4.999999
 41
1.2857145
  1
14
  0
LINE
  8
0
  6
CONTINUOUS
 62
     7
 10
-83
 20
-31
 11
-90
 21
-31
  0
LINE
  8
0
  6
CONTINUOUS
 62
     7
 10
-83
 20
-31
 11
-86
 21
-32
  0
LINE
  8
0
  6
CONTINUOUS
 62
     7
 10
-83
 20
-31
 11
-86
 21
-30
  0
LINE
  8
0
  6
CONTINUOUS
 62
     7
 10
-97
 20
-31
 11
-90
 21
-31
  0
LINE
  8
0
  6
CONTINUOUS
 62
     7
 10
-97
 20
-31
 11
-94
 21
-30
  0
LINE
  8
0
  6
CONTINUOUS
 62
     7
 10
-97
 20
-31
 11
-94
 21
-32
  0
ENDBLK
  8
0
  0
BLOCK
  8
0
  6
CONTINUOUS
 62
     7
 70
    65
  2
*DIM5
 10
0
 20
0
  0
TEXT
  8
0
  6
CONTINUOUS
 62
     7
 10
-44.785714
 20
32.25
 40
4.999999
 41
1.0285716
  1
45
  0
LINE
  8
0
  6
CONTINUOUS
 62
     7
 10
-63
 20
31
 11
-40.5
 21
31
  0
LINE
  8
0
  6
CONTINUOUS
 62
     7
 10
-63
 20
31
 11
-60
 21
32
  0
LINE
  8
0
  6
CONTINUOUS
 62
     7
 10
-63
 20
31
 11
-60
 21
30
  0
LINE
  8
0
  6
CONTINUOUS
 62
     7
 10
-18
 20
31
 11
-40.5
 21
31
  0
LINE
  8
0
  6
CONTINUOUS
 62
     7
 10
-18
 20
31
 11
-21
 21
30
  0
LINE
  8
0
  6
CONTINUOUS
 62
     7
 10
-18
 20
31
 11
-21
 21
32
  0
LINE
  8
0
  6
CONTINUOUS
 62
     7
 10
-63
 20
11
 11
-63
 21
33.285995
  0
LINE
  8
0
  6
CONTINUOUS
 62
     7
 10
-18
 20
9
 11
-18
 21
33.285995
  0
ENDBLK
  8
0
  0
BLOCK
  8
0
  6
CONTINUOUS
 62
     7
 70
    65
  2
*DIM6
 10
0
 20
0
  0
TEXT
  8
0
  6
CONTINUOUS
 62
     7
 10
-171.28571
 20
-39.75
 40
4.999999
 41
1.0285716
  1
32
  0
LINE
  8
0
  6
CONTINUOUS
 62
     7
 10
-183
 20
-41
 11
-167
 21
-41
  0
LINE
  8
0
  6
CONTINUOUS
 62
     7
 10
-183
 20
-41
 11
-180
 21
-40
  0
LINE
  8
0
  6
CONTINUOUS
 62
     7
 10
-183
 20
-41
 11
-180
 21
-42
  0
LINE
  8
0
  6
CONTINUOUS
 62
     7
 10
-151
 20
-41
 11
-167
 21
-41
  0
LINE
  8
0
  6
CONTINUOUS
 62
     7
 10
-151
 20
-41
 11
-154
 21
-42
  0
LINE
  8
0
  6
CONTINUOUS
 62
     7
 10
-151
 20
-41
 11
-154
 21
-40
  0
LINE
  8
0
  6
CONTINUOUS
 62
     7
 10
-183
 20
-9.2871141
 11
-183
 21
-43.285995
  0
LINE
  8
0
  6
CONTINUOUS
 62
     7
 10
-151
 20
-9.2870789
 11
-151
 21
-43.285995
  0
ENDBLK
  8
0
  0
BLOCK
  8
0
  6
CONTINUOUS
 62
     7
 70
    65
  2
*DIM7
 10
0
 20
0
  0
TEXT
  8
0
  6
CONTINUOUS
 62
     7
 10
-204.25
 20
-4.2856991
 40
4.999999
 41
1.0285716
  1
37
 50
90.000003
  0
LINE
  8
0
  6
CONTINUOUS
 62
     7
 10
-203
 20
18.499985
 11
-203
 21
1.5258789E-005
  0
LINE
  8
0
  6
CONTINUOUS
 62
     7
 10
-203
 20
18.499985
 11
-202
 21
15.499985
  0
LINE
  8
0
  6
CONTINUOUS
 62
     7
 10
-203
 20
18.499985
 11
-204
 21
15.499985
  0
LINE
  8
0
  6
CONTINUOUS
 62
     7
 10
-203
 20
-18.499954
 11
-203
 21
1.5258789E-005
  0
LINE
  8
0
  6
CONTINUOUS
 62
     7
 10
-203
 20
-18.499954
 11
-204
 21
-15.499954
  0
LINE
  8
0
  6
CONTINUOUS
 62
     7
 10
-203
 20
-18.499954
 11
-202
 21
-15.499954
  0
LINE
  8
0
  6
CONTINUOUS
 62
     7
 10
-167
 20
18.499985
 11
-205.286
 21
18.499985
  0
LINE
  8
0
  6
CONTINUOUS
 62
     7
 10
-166.95718
 20
-18.499954
 11
-205.286
 21
-18.499954
  0
ENDBLK
  8
0
  0
BLOCK
  8
0
  6
CONTINUOUS
 62
     7
 70
    65
  2
*DIM8
 10
0
 20
0
  0
TEXT
  8
0
  6
CONTINUOUS
 62
     7
 10
97.774924
 20
-39.75
 40
4.999999
 41
1.2857145
  1
18
  0
LINE
  8
0
  6
CONTINUOUS
 62
     7
 10
93.060638
 20
-41
 11
102.06064
 21
-41
  0
LINE
  8
0
  6
CONTINUOUS
 62
     7
 10
93.060638
 20
-41
 11
96.060638
 21
-40
  0
LINE
  8
0
  6
CONTINUOUS
 62
     7
 10
93.060638
 20
-41
 11
96.060638
 21
-42
  0
LINE
  8
0
  6
CONTINUOUS
 62
     7
 10
111.06064
 20
-41
 11
102.06064
 21
-41
  0
LINE
  8
0
  6
CONTINUOUS
 62
     7
 10
111.06064
 20
-41
 11
108.06064
 21
-42
  0
LINE
  8
0
  6
CONTINUOUS
 62
     7
 10
111.06064
 20
-41
 11
108.06064
 21
-40
  0
LINE
  8
0
  6
CONTINUOUS
 62
     7
 10
93.060638
 20
-18.499954
 11
93.060638
 21
-43.285995
  0
LINE
  8
0
  6
CONTINUOUS
 62
     7
 10
111.06064
 20
-13.893517
 11
111.06064
 21
-43.285995
  0
ENDBLK
  8
0
  0
BLOCK
  8
0
  6
CONTINUOUS
 62
     7
 70
    65
  2
*DIM9
 10
0
 20
0
  0
TEXT
  8
0
  6
CONTINUOUS
 62
     7
 10
176.45312
 20
-2.9362393
 40
4.999999
 41
1.0178573
  1
M22
 50
34.099999
  0
LINE
  8
0
  6
CONTINUOUS
 62
     7
 10
192.13596
 20
6.1564188
 11
183.02013
 21
-2.1934509E-005
  0
LINE
  8
0
  6
CONTINUOUS
 62
     7
 10
192.13596
 20
6.1564188
 11
190.2095
 21
3.6486789
  0
LINE
  8
0
  6
CONTINUOUS
 62
     7
 10
192.13596
 20
6.1564188
 11
189.09015
 21
5.3061017
  0
LINE
  8
0
  6
CONTINUOUS
 62
     7
 10
173.9043
 20
-6.1564627
 11
183.02013
 21
-2.1934509E-005
  0
LINE
  8
0
  6
CONTINUOUS
 62
     7
 10
173.9043
 20
-6.1564627
 11
175.83075
 21
-3.6487227
  0
LINE
  8
0
  6
CONTINUOUS
 62
     7
 10
173.9043
 20
-6.1564627
 11
176.95011
 21
-5.3061455
  0
ENDBLK
  8
0
  0
BLOCK
  8
0
  6
CONTINUOUS
 62
     7
 70
    65
  2
*DIM10
 10
0
 20
0
  0
TEXT
  8
0
  6
CONTINUOUS
 62
     7
 10
217.75
 20
-4.2856991
 40
4.999999
 41
1.0285716
  1
37
 50
90.000003
  0
LINE
  8
0
  6
CONTINUOUS
 62
     7
 10
219
 20
18.499985
 11
219
 21
1.5258789E-005
  0
LINE
  8
0
  6
CONTINUOUS
 62
     7
 10
219
 20
18.499985
 11
220
 21
15.499985
  0
LINE
  8
0
  6
CONTINUOUS
 62
     7
 10
219
 20
18.499985
 11
218
 21
15.499985
  0
LINE
  8
0
  6
CONTINUOUS
 62
     7
 10
219
 20
-18.499954
 11
219
 21
1.5258789E-005
  0
LINE
  8
0
  6
CONTINUOUS
 62
     7
 10
219
 20
-18.499954
 11
218
 21
-15.499954
  0
LINE
  8
0
  6
CONTINUOUS
 62
     7
 10
219
 20
-18.499954
 11
220
 21
-15.499954
  0
LINE
  8
0
  6
CONTINUOUS
 62
     7
 10
183
 20
18.499985
 11
221.286
 21
18.499985
  0
LINE
  8
0
  6
CONTINUOUS
 62
     7
 10
183.04282
 20
-18.499954
 11
221.286
 21
-18.499954
  0
ENDBLK
  8
0
  0
ENDSEC
  0
SECTION
  2
ENTITIES
  0
LINE
  8
0
  6
CONTINUOUS
 62
     7
 10
-297
 20
210
 11
297
 21
210
  0
LINE
  8
0
  6
CONTINUOUS
 62
     7
 10
-297
 20
-210
 11
297
 21
-210
  0
LINE
  8
0
  6
CONTINUOUS
 62
     7
 10
297
 20
210
 11
297
 21
-210
  0
LINE
  8
0
  6
CONTINUOUS
 62
     7
 10
-297
 20
210
 11
-297
 21
-210
  0
LINE
  8
0
  6
CONTINUOUS
 62
     7
 10
287
 20
200
 11
287
 21
-200
  0
LINE
  8
0
  6
CONTINUOUS
 62
     7
 10
-287
 20
200
 11
-287
 21
-200
  0
LINE
  8
0
  6
CONTINUOUS
 62
     7
 10
-287
 20
200
 11
287
 21
200
  0
LINE
  8
0
  6
CONTINUOUS
 62
     7
 10
-287
 20
-200
 11
287
 21
-200
  0
LINE
  8
0
  6
CONTINUOUS
 62
     7
 10
-287
 20
176
 11
-207
 21
176
  0
LINE
  8
0
  6
CONTINUOUS
 62
     7
 10
-287
 20
188
 11
-207
 21
188
  0
LINE
  8
0
  6
CONTINUOUS
 62
     7
 10
-263
 20
200
 11
-263
 21
176
  0
LINE
  8
0
  6
CONTINUOUS
 62
     7
 10
-275
 20
176
 11
-275
 21
164
  0
LINE
  8
0
  6
CONTINUOUS
 62
     7
 10
-207
 20
200
 11
-207
 21
164
  0
LINE
  8
0
  6
CONTINUOUS
 62
     7
 10
-247
 20
176
 11
-247
 21
164
  0
LINE
  8
0
  6
CONTINUOUS
 62
     7
 10
-235
 20
176
 11
-235
 21
164
  0
LINE
  8
0
  6
CONTINUOUS
 62
     7
 10
302
 20
215
 11
302
 21
-215
  0
LINE
  8
0
  6
CONTINUOUS
 62
     7
 10
-302
 20
-215
 11
302
 21
-215
  0
LINE
  8
0
  6
CONTINUOUS
 62
     7
 10
-63
 20
11
 11
-63
 21
-11
  0
LINE
  8
0
  6
CONTINUOUS
 62
     7
 10
-18
 20
9
 11
-18
 21
-9
  0
LINE
  8
0
  6
CONTINUOUS
 62
     7
 10
-83
 20
11
 11
-20
 21
11
  0
LINE
  8
0
  6
CONTINUOUS
 62
     7
 10
-83
 20
-11
 11
-20
 21
-11
  0
LINE
  8
0
  6
CONTINUOUS
 62
     7
 10
-20
 20
11
 11
-20
 21
-11
  0
LINE
  8
0
  6
CONTINUOUS
 62
     7
 10
-63
 20
9
 11
-18
 21
9
  0
LINE
  8
0
  6
CONTINUOUS
 62
     7
 10
-63
 20
-9
 11
-18
 21
-9
  0
LINE
  8
0
  6
CONTINUOUS
 62
     7
 10
-19.999979
 20
10.99999
 11
-17.999977
 21
8.9999886
  0
LINE
  8
0
  6
CONTINUOUS
 62
     7
 10
-19.999979
 20
-10.99999
 11
-17.999977
 21
-8.9999886
  0
LINE
  8
0
  6
CONTINUOUS
 62
     7
 10
-66.464088
 20
-11.000016
 11
-62.999989
 21
-9.0000162
  0
LINE
  8
0
  6
CONTINUOUS
 62
     7
 10
-66.464088
 20
11.000016
 11
-62.999989
 21
9.0000162
  0
LINE
  8
0
  6
CENTER
 62
     7
 10
-107.5134
 20
0
 11
-9.200592
 21
0
  0
LINE
  8
0
  6
CONTINUOUS
 62
     7
 10
199
 20
9.2870636
 11
199
 21
-9.2870789
  0
LINE
  8
0
  6
CONTINUOUS
 62
     7
 10
167
 20
9.2870693
 11
167
 21
-9.2871141
  0
LINE
  8
0
  6
CONTINUOUS
 62
     7
 10
103.2406
 20
66.125992
 11
148.79059
 21
66.125992
  0
LINE
  8
0
  6
CONTINUOUS
 62
     7
 10
103.2406
 20
65.125992
 11
148.79059
 21
65.125992
  0
LINE
  8
0
  6
CONTINUOUS
 62
     7
 10
-171.97183
 20
66.125992
 11
-131.20941
 21
66.125992
  0
LINE
  8
0
  6
CONTINUOUS
 62
     7
 10
-171.97183
 20
65.125992
 11
-131.20941
 21
65.125992
  0
LINE
  8
0
  6
CENTER
 62
     7
 10
160.52139
 20
0
 11
205.52139
 21
0
  0
LINE
  8
0
  6
CENTER
 62
     7
 10
183.02139
 20
25
 11
183.02139
 21
-25
  0
LINE
  8
0
  6
CONTINUOUS
 62
     7
 10
166.99992
 20
9.2871027
 11
182.99991
 21
18.500013
  0
LINE
  8
0
  6
CONTINUOUS
 62
     7
 10
183.04274
 20
-18.49995
 11
166.99994
 21
-9.2871094
  0
LINE
  8
0
  6
CONTINUOUS
 62
     7
 10
183.04277
 20
-18.499943
 11
198.99995
 21
-9.2870646
  0
LINE
  8
0
  6
CONTINUOUS
 62
     7
 10
182.99991
 20
18.49996
 11
198.99992
 21
9.2870331
  0
LINE
  8
0
  6
CONTINUOUS
 62
     7
 10
-83
 20
18.499985
 11
-83
 21
-18.499954
  0
LINE
  8
0
  6
CONTINUOUS
 62
     7
 10
-97
 20
13.893524
 11
-97
 21
-13.893517
  0
LINE
  8
0
  6
CONTINUOUS
 62
     7
 10
-95
 20
18.499985
 11
-83
 21
18.499985
  0
LINE
  8
0
  6
CONTINUOUS
 62
     7
 10
-95
 20
9.2870636
 11
-83
 21
9.2870636
  0
LINE
  8
0
  6
CONTINUOUS
 62
     7
 10
-95
 20
-9.2870789
 11
-83
 21
-9.2870789
  0
LINE
  8
0
  6
CONTINUOUS
 62
     7
 10
-95
 20
-18.499954
 11
-83
 21
-18.499954
  0
LINE
  8
0
  6
CENTER
 62
     7
 10
80.009995
 20
0
 11
121.57404
 21
0
  0
LINE
  8
0
  6
CONTINUOUS
 62
     7
 10
93.060638
 20
-18.499954
 11
93.060638
 21
18.499985
  0
LINE
  8
0
  6
CONTINUOUS
 62
     7
 10
111.06064
 20
-13.893517
 11
111.06064
 21
13.893524
  0
LINE
  8
0
  6
CONTINUOUS
 62
     7
 10
93.060638
 20
18.499985
 11
109.06064
 21
18.499985
  0
LINE
  8
0
  6
CONTINUOUS
 62
     7
 10
93.060638
 20
9.2870636
 11
109.06064
 21
9.2870636
  0
LINE
  8
0
  6
CONTINUOUS
 62
     7
 10
93.060638
 20
-9.2870789
 11
109.06064
 21
-9.2870789
  0
LINE
  8
0
  6
CONTINUOUS
 62
     7
 10
93.060638
 20
-18.499954
 11
109.06064
 21
-18.499954
  0
LINE
  8
0
  6
CONTINUOUS
 62
     7
 10
-151
 20
9.2870636
 11
-151
 21
-9.2870789
  0
LINE
  8
0
  6
CONTINUOUS
 62
     7
 10
-183
 20
9.2870693
 11
-183
 21
-9.2871141
  0
LINE
  8
0
  6
CENTER
 62
     7
 10
-189.47861
 20
0
 11
-144.47861
 21
0
  0
LINE
  8
0
  6
CENTER
 62
     7
 10
-166.97861
 20
25
 11
-166.97861
 21
-25
  0
LINE
  8
0
  6
CONTINUOUS
 62
     7
 10
-182.99998
 20
9.287076
 11
-167
 21
18.499987
  0
LINE
  8
0
  6
CONTINUOUS
 62
     7
 10
-166.95718
 20
-18.49996
 11
-182.99998
 21
-9.2871189
  0
LINE
  8
0
  6
CONTINUOUS
 62
     7
 10
-166.95717
 20
-18.49995
 11
-150.99998
 21
-9.2870722
  0
LINE
  8
0
  6
CONTINUOUS
 62
     7
 10
-167
 20
18.499987
 11
-150.99998
 21
9.2870598
  0
LINE
  8
0
  6
CONTINUOUS
 62
     7
 10
-287
 20
164
 11
-207
 21
164
  0
CIRCLE
  8
0
  6
CONTINUOUS
 62
     7
 10
183.02139
 20
0
 40
16
  0
ARC
  8
0
  6
CONTINUOUS
 62
     7
 10
-90.695129
 20
13.893524
 40
6.3048697
 50
133.06165
 51
226.93834
  0
ARC
  8
0
  6
CONTINUOUS
 62
     7
 10
-90.695175
 20
-13.893517
 40
6.3048162
 50
133.06143
 51
226.93855
  0
ARC
  8
0
  6
CONTINUOUS
 62
     7
 10
-74.437576
 20
-7.6293945E-006
 40
22.562408
 50
155.69356
 51
204.30642
  0
ARC
  8
0
  6
CONTINUOUS
 62
     7
 10
104.75577
 20
13.893524
 40
6.3048697
 50
313.06167
 51
46.938351
  0
ARC
  8
0
  6
CONTINUOUS
 62
     7
 10
104.75581
 20
-13.893517
 40
6.3048162
 50
313.06145
 51
46.938569
  0
ARC
  8
0
  6
CONTINUOUS
 62
     7
 10
88.498215
 20
-7.6293945E-006
 40
22.562408
 50
335.69358
 51
24.306437
  0
CIRCLE
  8
0
  6
CONTINUOUS
 62
     7
 10
-166.97861
 20
0
 40
16
  0
CIRCLE
  8
0
  6
CONTINUOUS
 62
     7
 10
183.02139
 20
0
 40
11
  0
CIRCLE
  8
0
  6
CONTINUOUS
 62
     7
 10
183.02139
 20
0
 40
9
  0
TEXT
  8
0
  6
CONTINUOUS
 62
     7
 10
-282.42857
 20
192
 40
4
 41
0.85124966
  1
品　　名
  0
TEXT
  8
0
  6
CONTINUOUS
 62
     7
 10
-282.42857
 20
180
 40
4
 41
0.85124966
  1
記　　号
  0
TEXT
  8
0
  6
CONTINUOUS
 62
     7
 10
-244.42857
 20
171
 40
4
 41
0.8643459
  1
規格
  0
TEXT
  8
0
  6
CONTINUOUS
 62
     7
 10
-244.42857
 20
165
 40
4
 41
0.8643459
  1
重量
  0
TEXT
  8
0
  6
CONTINUOUS
 62
     7
 10
-258.64286
 20
179
 40
6
 41
1.0102041
  1
BN-65
  0
TEXT
  8
0
  6
CONTINUOUS
 62
     7
 10
-258.64286
 20
191
 40
6
 41
0.84633857
  1
ボルト　ナット
  0
TEXT
  8
0
  6
CONTINUOUS
 62
     7
 10
-233.03572
 20
167.5
 40
5
 41
1.3109245
  1
0.35
  0
TEXT
  8
0
  6
CONTINUOUS
 62
     7
 10
-213.03572
 20
171.25
 40
2.5
 41
1.357143
  1
 kg
  0
TEXT
  8
0
  6
CONTINUOUS
 62
     7
 10
-162.16543
 20
68.625992
 40
5
 41
0.84891105
  1
ボ　ル　ト
  0
TEXT
  8
0
  6
CONTINUOUS
 62
     7
 10
115.03924
 20
69.114273
 40
5
 41
0.84891105
  1
ナ　ッ　ト
  0
TEXT
  8
0
  6
CONTINUOUS
 62
     7
 10
-168.06813
 20
-13.096066
 40
4.165596
 41
1.0714291
  1
M
  0
DIMENSION
  8
0
  6
CONTINUOUS
 62
     7
  2
*DIM0
 70
     0
 10
2
 20
11
 11
-1.7499993
 21
-2.8312697E-007
 13
-20
 23
11
 14
-20
 24
-11
 50
90
  0
DIMENSION
  8
0
  6
CONTINUOUS
 62
     7
  2
*DIM1
 70
     0
 10
167
 20
-41
 11
183
 21
-37.250001
 13
167
 23
-9.2871141
 14
199
 24
-9.2870789
 50
0
  0
DIMENSION
  8
0
  6
CONTINUOUS
 62
     7
  2
*DIM2
 70
     0
 10
-97
 20
-41
 11
-57.5
 21
-37.250001
 13
-97
 23
-13.893517
 14
-18
 24
-9
 50
0
  0
DIMENSION
  8
0
  6
CONTINUOUS
 62
     7
  2
*DIM3
 70
     0
 10
-83
 20
-31
 11
-50.5
 21
-27.250001
 13
-83
 23
-18.499954
 14
-18
 24
-9
 50
0
  0
DIMENSION
  8
0
  6
CONTINUOUS
 62
     7
  2
*DIM4
 70
     0
 10
-83
 20
-31
 11
-90
 21
-27.250001
 13
-83
 23
-18.499954
 14
-97
 24
-13.893517
 50
0
  0
DIMENSION
  8
0
  6
CONTINUOUS
 62
     7
  2
*DIM5
 70
     0
 10
-63
 20
31
 11
-40.5
 21
34.749999
 13
-63
 23
11
 14
-18
 24
9
 50
0
  0
DIMENSION
  8
0
  6
CONTINUOUS
 62
     7
  2
*DIM6
 70
     0
 10
-183
 20
-41
 11
-167
 21
-37.250001
 13
-183
 23
-9.2871141
 14
-151
 24
-9.2870789
 50
0
  0
DIMENSION
  8
0
  6
CONTINUOUS
 62
     7
  2
*DIM7
 70
     0
 10
-203
 20
18.499985
 11
-206.75
 21
1.5035267E-005
 13
-167
 23
18.499985
 14
-166.95718
 24
-18.499954
 50
90
  0
DIMENSION
  8
0
  6
CONTINUOUS
 62
     7
  2
*DIM8
 70
     0
 10
93.060638
 20
-41
 11
102.06064
 21
-37.250001
 13
93.060638
 23
-18.499954
 14
111.06064
 24
-13.893517
 50
0
  0
DIMENSION
  8
0
  6
CONTINUOUS
 62
     7
  2
*DIM9
 70
     3
 10
173.9043
 20
-6.1564629
 11
180.67051
 21
2.9382469
 15
192.13596
 25
6.1564188
  0
DIMENSION
  8
0
  6
CONTINUOUS
 62
     7
  2
*DIM10
 70
     0
 10
219
 20
18.499985
 11
215.25
 21
1.5035267E-005
 13
183
 23
18.499985
 14
183.04282
 24
-18.499954
 50
90
  0
ENDSEC
  0
EOF
